  0
SECTION
  2
HEADER
  9
$ACADVER
  1
AC1018
  9
$ACADMAINTVER
 70
     0
  9
$DWGCODEPAGE
  3
ANSI_936
  9
$INSBASE
 10
0.0
 20
0.0
 30
0.0
  9
$EXTMIN
 10
660.9001194997416
 20
815.2438591802606
 30
0.0
  9
$EXTMAX
 10
939.5347607107114
 20
1125.005269479517
 30
0.0
  9
$LIMMIN
 10
0.0
 20
0.0
  9
$LIMMAX
 10
420.0
 20
297.0
  9
$ORTHOMODE
 70
     0
  9
$REGENMODE
 70
     1
  9
$FILLMODE
 70
     1
  9
$QTEXTMODE
 70
     0
  9
$MIRRTEXT
 70
     0
  9
$LTSCALE
 40
1.0
  9
$ATTMODE
 70
     1
  9
$TEXTSIZE
 40
2.5
  9
$TRACEWID
 40
1.0
  9
$TEXTSTYLE
  7
Standard
  9
$CLAYER
  8
0
  9
$CELTYPE
  6
ByLayer
  9
$CECOLOR
 62
   256
  9
$CELTSCALE
 40
1.0
  9
$DISPSILH
 70
     0
  9
$DIMSCALE
 40
1.0
  9
$DIMASZ
 40
2.5
  9
$DIMEXO
 40
0.625
  9
$DIMDLI
 40
3.75
  9
$DIMRND
 40
0.0
  9
$DIMDLE
 40
0.0
  9
$DIMEXE
 40
1.25
  9
$DIMTP
 40
0.0
  9
$DIMTM
 40
0.0
  9
$DIMTXT
 40
2.5
  9
$DIMCEN
 40
2.5
  9
$DIMTSZ
 40
0.0
  9
$DIMTOL
 70
     0
  9
$DIMLIM
 70
     0
  9
$DIMTIH
 70
     0
  9
$DIMTOH
 70
     0
  9
$DIMSE1
 70
     0
  9
$DIMSE2
 70
     0
  9
$DIMTAD
 70
     1
  9
$DIMZIN
 70
     8
  9
$DIMBLK
  1

  9
$DIMASO
 70
     1
  9
$DIMSHO
 70
     1
  9
$DIMPOST
  1

  9
$DIMAPOST
  1

  9
$DIMALT
 70
     0
  9
$DIMALTD
 70
     3
  9
$DIMALTF
 40
0.03937007874016
  9
$DIMLFAC
 40
1.0
  9
$DIMTOFL
 70
     1
  9
$DIMTVP
 40
0.0
  9
$DIMTIX
 70
     0
  9
$DIMSOXD
 70
     0
  9
$DIMSAH
 70
     0
  9
$DIMBLK1
  1

  9
$DIMBLK2
  1

  9
$DIMSTYLE
  2
ISO-25
  9
$DIMCLRD
 70
     0
  9
$DIMCLRE
 70
     0
  9
$DIMCLRT
 70
     0
  9
$DIMTFAC
 40
1.0
  9
$DIMGAP
 40
0.625
  9
$DIMJUST
 70
     0
  9
$DIMSD1
 70
     0
  9
$DIMSD2
 70
     0
  9
$DIMTOLJ
 70
     0
  9
$DIMTZIN
 70
     8
  9
$DIMALTZ
 70
     0
  9
$DIMALTTZ
 70
     0
  9
$DIMUPT
 70
     0
  9
$DIMDEC
 70
     2
  9
$DIMTDEC
 70
     2
  9
$DIMALTU
 70
     2
  9
$DIMALTTD
 70
     3
  9
$DIMTXSTY
  7
Standard
  9
$DIMAUNIT
 70
     0
  9
$DIMADEC
 70
     0
  9
$DIMALTRND
 40
0.0
  9
$DIMAZIN
 70
     0
  9
$DIMDSEP
 70
    44
  9
$DIMATFIT
 70
     3
  9
$DIMFRAC
 70
     0
  9
$DIMLDRBLK
  1

  9
$DIMLUNIT
 70
     2
  9
$DIMLWD
 70
    -2
  9
$DIMLWE
 70
    -2
  9
$DIMTMOVE
 70
     0
  9
$LUNITS
 70
     2
  9
$LUPREC
 70
     4
  9
$SKETCHINC
 40
1.0
  9
$FILLETRAD
 40
0.0
  9
$AUNITS
 70
     0
  9
$AUPREC
 70
     0
  9
$MENU
  1
.
  9
$ELEVATION
 40
0.0
  9
$PELEVATION
 40
0.0
  9
$THICKNESS
 40
0.0
  9
$LIMCHECK
 70
     0
  9
$CHAMFERA
 40
0.0
  9
$CHAMFERB
 40
0.0
  9
$CHAMFERC
 40
0.0
  9
$CHAMFERD
 40
0.0
  9
$SKPOLY
 70
     0
  9
$TDCREATE
 40
2458410.389401944
  9
$TDUCREATE
 40
2458410.056068611
  9
$TDUPDATE
 40
2458410.460334919
  9
$TDUUPDATE
 40
2458410.127001585
  9
$TDINDWG
 40
0.0527978472
  9
$TDUSRTIMER
 40
0.0527965856
  9
$USRTIMER
 70
     1
  9
$ANGBASE
 50
0.0
  9
$ANGDIR
 70
     0
  9
$PDMODE
 70
     0
  9
$PDSIZE
 40
0.0
  9
$PLINEWID
 40
0.0
  9
$SPLFRAME
 70
     0
  9
$SPLINETYPE
 70
     6
  9
$SPLINESEGS
 70
     8
  9
$HANDSEED
  5
178
  9
$SURFTAB1
 70
     6
  9
$SURFTAB2
 70
     6
  9
$SURFTYPE
 70
     6
  9
$SURFU
 70
     6
  9
$SURFV
 70
     6
  9
$UCSBASE
  2

  9
$UCSNAME
  2

  9
$UCSORG
 10
0.0
 20
0.0
 30
0.0
  9
$UCSXDIR
 10
1.0
 20
0.0
 30
0.0
  9
$UCSYDIR
 10
0.0
 20
1.0
 30
0.0
  9
$UCSORTHOREF
  2

  9
$UCSORTHOVIEW
 70
     0
  9
$UCSORGTOP
 10
0.0
 20
0.0
 30
0.0
  9
$UCSORGBOTTOM
 10
0.0
 20
0.0
 30
0.0
  9
$UCSORGLEFT
 10
0.0
 20
0.0
 30
0.0
  9
$UCSORGRIGHT
 10
0.0
 20
0.0
 30
0.0
  9
$UCSORGFRONT
 10
0.0
 20
0.0
 30
0.0
  9
$UCSORGBACK
 10
0.0
 20
0.0
 30
0.0
  9
$PUCSBASE
  2

  9
$PUCSNAME
  2

  9
$PUCSORG
 10
0.0
 20
0.0
 30
0.0
  9
$PUCSXDIR
 10
1.0
 20
0.0
 30
0.0
  9
$PUCSYDIR
 10
0.0
 20
1.0
 30
0.0
  9
$PUCSORTHOREF
  2

  9
$PUCSORTHOVIEW
 70
     0
  9
$PUCSORGTOP
 10
0.0
 20
0.0
 30
0.0
  9
$PUCSORGBOTTOM
 10
0.0
 20
0.0
 30
0.0
  9
$PUCSORGLEFT
 10
0.0
 20
0.0
 30
0.0
  9
$PUCSORGRIGHT
 10
0.0
 20
0.0
 30
0.0
  9
$PUCSORGFRONT
 10
0.0
 20
0.0
 30
0.0
  9
$PUCSORGBACK
 10
0.0
 20
0.0
 30
0.0
  9
$USERI1
 70
     0
  9
$USERI2
 70
     0
  9
$USERI3
 70
     0
  9
$USERI4
 70
     0
  9
$USERI5
 70
     0
  9
$USERR1
 40
0.0
  9
$USERR2
 40
0.0
  9
$USERR3
 40
0.0
  9
$USERR4
 40
0.0
  9
$USERR5
 40
0.0
  9
$WORLDVIEW
 70
     1
  9
$SHADEDGE
 70
     3
  9
$SHADEDIF
 70
    70
  9
$TILEMODE
 70
     1
  9
$MAXACTVP
 70
    64
  9
$PINSBASE
 10
0.0
 20
0.0
 30
0.0
  9
$PLIMCHECK
 70
     0
  9
$PEXTMIN
 10
0.0
 20
0.0
 30
0.0
  9
$PEXTMAX
 10
0.0
 20
0.0
 30
0.0
  9
$PLIMMIN
 10
0.0
 20
0.0
  9
$PLIMMAX
 10
12.0
 20
9.0
  9
$UNITMODE
 70
     0
  9
$VISRETAIN
 70
     1
  9
$PLINEGEN
 70
     0
  9
$PSLTSCALE
 70
     1
  9
$TREEDEPTH
 70
  3020
  9
$CMLSTYLE
  2
Standard
  9
$CMLJUST
 70
     0
  9
$CMLSCALE
 40
20.0
  9
$PROXYGRAPHICS
 70
     1
  9
$MEASUREMENT
 70
     1
  9
$CELWEIGHT
370
    -1
  9
$ENDCAPS
280
     0
  9
$JOINSTYLE
280
     0
  9
$LWDISPLAY
290
     0
  9
$INSUNITS
 70
     4
  9
$HYPERLINKBASE
  1

  9
$STYLESHEET
  1

  9
$XEDIT
290
     1
  9
$CEPSNTYPE
380
     0
  9
$PSTYLEMODE
290
     1
  9
$FINGERPRINTGUID
  2
{FDEAD578-A652-11D2-9A35-0060089B3A3F}
  9
$VERSIONGUID
  2
{CA72A108-7494-4262-BD37-E7C5AB7CB796}
  9
$EXTNAMES
290
     1
  9
$PSVPSCALE
 40
0.0
  9
$OLESTARTUP
290
     0
  9
$SORTENTS
280
   127
  9
$INDEXCTL
280
     0
  9
$HIDETEXT
280
     1
  9
$XCLIPFRAME
290
     0
  9
$HALOGAP
280
     0
  9
$OBSCOLOR
 70
   257
  9
$OBSLTYPE
280
     0
  9
$INTERSECTIONDISPLAY
280
     0
  9
$INTERSECTIONCOLOR
 70
   257
  9
$DIMASSOC
280
     2
  9
$PROJECTNAME
  1

  0
ENDSEC
  0
SECTION
  2
CLASSES
  0
CLASS
  1
ACDBDICTIONARYWDFLT
  2
AcDbDictionaryWithDefault
  3
ObjectDBX Classes
 90
        0
 91
        1
280
     0
281
     0
  0
CLASS
  1
DICTIONARYVAR
  2
AcDbDictionaryVar
  3
ObjectDBX Classes
 90
        0
 91
        2
280
     0
281
     0
  0
CLASS
  1
DIMASSOC
  2
AcDbDimAssoc
  3
"AcDbDimAssoc|Product Desc:     AcDim ARX App For Dimension|Company:          Autodesk, Inc.|WEB Address:      www.autodesk.com"
 90
        0
 91
        6
280
     0
281
     0
  0
ENDSEC
  0
SECTION
  2
TABLES
  0
TABLE
  2
VPORT
  5
8
330
0
100
AcDbSymbolTable
 70
     2
  0
VPORT
  5
177
330
8
100
AcDbSymbolTableRecord
100
AcDbViewportTableRecord
  2
*Active
 70
     0
 10
0.0
 20
0.0
 11
1.0
 21
1.0
 12
815.9439326478363
 22
974.777667081617
 13
0.0
 23
0.0
 14
10.0
 24
10.0
 15
10.0
 25
10.0
 16
0.0
 26
0.0
 36
1.0
 17
0.0
 27
0.0
 37
0.0
 40
345.6683427423907
 41
1.576517150395778
 42
50.0
 43
0.0
 44
0.0
 50
0.0
 51
0.0
 71
     0
 72
  1000
 73
     1
 74
     3
 75
     0
 76
     0
 77
     0
 78
     0
281
     0
 65
     1
110
0.0
120
0.0
130
0.0
111
1.0
121
0.0
131
0.0
112
0.0
122
1.0
132
0.0
 79
     0
146
0.0
  0
ENDTAB
  0
TABLE
  2
LTYPE
  5
5
330
0
100
AcDbSymbolTable
 70
     1
  0
LTYPE
  5
14
330
5
100
AcDbSymbolTableRecord
100
AcDbLinetypeTableRecord
  2
ByBlock
 70
     0
  3

 72
    65
 73
     0
 40
0.0
  0
LTYPE
  5
15
330
5
100
AcDbSymbolTableRecord
100
AcDbLinetypeTableRecord
  2
ByLayer
 70
     0
  3

 72
    65
 73
     0
 40
0.0
  0
LTYPE
  5
16
330
5
100
AcDbSymbolTableRecord
100
AcDbLinetypeTableRecord
  2
Continuous
 70
     0
  3
Solid line
 72
    65
 73
     0
 40
0.0
  0
ENDTAB
  0
TABLE
  2
LAYER
  5
2
330
0
100
AcDbSymbolTable
 70
     2
  0
LAYER
  5
10
330
2
100
AcDbSymbolTableRecord
100
AcDbLayerTableRecord
  2
0
 70
     0
 62
     7
  6
Continuous
370
    -3
390
F
  0
LAYER
  5
D5
330
2
100
AcDbSymbolTableRecord
100
AcDbLayerTableRecord
  2
Defpoints
 70
     0
 62
     7
  6
Continuous
290
     0
370
    -3
390
F
  0
ENDTAB
  0
TABLE
  2
STYLE
  5
3
330
0
100
AcDbSymbolTable
 70
     1
  0
STYLE
  5
11
330
3
100
AcDbSymbolTableRecord
100
AcDbTextStyleTableRecord
  2
Standard
 70
     0
 40
0.0
 41
1.0
 50
0.0
 71
     0
 42
2.5
  3
txt
  4

  0
ENDTAB
  0
TABLE
  2
VIEW
  5
6
330
0
100
AcDbSymbolTable
 70
     0
  0
ENDTAB
  0
TABLE
  2
UCS
  5
7
330
0
100
AcDbSymbolTable
 70
     0
  0
ENDTAB
  0
TABLE
  2
APPID
  5
9
330
0
100
AcDbSymbolTable
 70
     1
  0
APPID
  5
12
330
9
100
AcDbSymbolTableRecord
100
AcDbRegAppTableRecord
  2
ACAD
 70
     0
  0
ENDTAB
  0
TABLE
  2
DIMSTYLE
  5
A
330
0
100
AcDbSymbolTable
 70
     1
100
AcDbDimStyleTable
 71
     1
340
27
  0
DIMSTYLE
105
27
102
{ACAD_REACTORS
330
D4
330
ED
330
105
330
11D
330
12A
330
142
330
15A
102
}
330
A
100
AcDbSymbolTableRecord
100
AcDbDimStyleTableRecord
  2
ISO-25
 70
     0
 41
2.5
 42
0.625
 43
3.75
 44
1.25
 73
     0
 74
     0
 77
     1
 78
     8
140
2.5
141
2.5
143
0.03937007874016
147
0.625
171
     3
172
     1
271
     2
272
     2
274
     3
278
    44
283
     0
284
     8
340
11
  0
ENDTAB
  0
TABLE
  2
BLOCK_RECORD
  5
1
330
0
100
AcDbSymbolTable
 70
     8
  0
BLOCK_RECORD
  5
1F
330
1
100
AcDbSymbolTableRecord
100
AcDbBlockTableRecord
  2
*Model_Space
340
22
  0
BLOCK_RECORD
  5
50
330
1
100
AcDbSymbolTableRecord
100
AcDbBlockTableRecord
  2
*Paper_Space
340
51
  0
BLOCK_RECORD
  5
55
330
1
100
AcDbSymbolTableRecord
100
AcDbBlockTableRecord
  2
*Paper_Space0
340
56
  0
BLOCK_RECORD
  5
D6
330
1
100
AcDbSymbolTableRecord
100
AcDbBlockTableRecord
  2
*D1
340
0
  0
BLOCK_RECORD
  5
EE
330
1
100
AcDbSymbolTableRecord
100
AcDbBlockTableRecord
  2
*D2
340
0
  0
BLOCK_RECORD
  5
106
330
1
100
AcDbSymbolTableRecord
100
AcDbBlockTableRecord
  2
*D3
340
0
  0
BLOCK_RECORD
  5
11E
330
1
100
AcDbSymbolTableRecord
100
AcDbBlockTableRecord
  2
*D4
340
0
  0
BLOCK_RECORD
  5
12B
330
1
100
AcDbSymbolTableRecord
100
AcDbBlockTableRecord
  2
*D5
340
0
  0
BLOCK_RECORD
  5
143
330
1
100
AcDbSymbolTableRecord
100
AcDbBlockTableRecord
  2
*D6
340
0
  0
BLOCK_RECORD
  5
15B
330
1
100
AcDbSymbolTableRecord
100
AcDbBlockTableRecord
  2
*D7
340
0
  0
ENDTAB
  0
ENDSEC
  0
SECTION
  2
BLOCKS
  0
BLOCK
  5
20
330
1F
100
AcDbEntity
  8
0
100
AcDbBlockBegin
  2
*Model_Space
 70
     0
 10
0.0
 20
0.0
 30
0.0
  3
*Model_Space
  1

  0
ENDBLK
  5
21
330
1F
100
AcDbEntity
  8
0
100
AcDbBlockEnd
  0
BLOCK
  5
52
330
50
100
AcDbEntity
 67
     1
  8
0
100
AcDbBlockBegin
  2
*Paper_Space
 70
     0
 10
0.0
 20
0.0
 30
0.0
  3
*Paper_Space
  1

  0
ENDBLK
  5
53
330
50
100
AcDbEntity
 67
     1
  8
0
100
AcDbBlockEnd
  0
BLOCK
  5
57
330
55
100
AcDbEntity
  8
0
100
AcDbBlockBegin
  2
*Paper_Space0
 70
     0
 10
0.0
 20
0.0
 30
0.0
  3
*Paper_Space0
  1

  0
ENDBLK
  5
58
330
55
100
AcDbEntity
  8
0
100
AcDbBlockEnd
  0
BLOCK
  5
E0
330
D6
100
AcDbEntity
  8
0
100
AcDbBlockBegin
  2
*D1
 70
     1
 10
0.0
 20
0.0
 30
0.0
  3
*D1
  1

  0
LINE
  5
E3
330
D6
100
AcDbEntity
  8
0
 62
     0
370
    -2
100
AcDbLine
 10
708.5583597488075
 20
1080.86885918026
 30
0.0
 11
708.5583597488075
 21
1106.102783850209
 31
0.0
  0
LINE
  5
E4
330
D6
100
AcDbEntity
  8
0
 62
     0
370
    -2
100
AcDbLine
 10
908.5583597488076
 20
1080.86885918026
 30
0.0
 11
908.5583597488076
 21
1106.102783850209
 31
0.0
  0
LINE
  5
E5
330
D6
100
AcDbEntity
  8
0
 62
     0
370
    -2
100
AcDbLine
 10
711.0583597488076
 20
1104.852783850209
 30
0.0
 11
906.0583597488076
 21
1104.852783850209
 31
0.0
  0
SOLID
  5
E6
330
D6
100
AcDbEntity
  8
0
 62
     0
100
AcDbTrace
 10
711.0583597488076
 20
1105.269450516876
 30
0.0
 11
711.0583597488076
 21
1104.436117183542
 31
0.0
 12
708.5583597488075
 22
1104.852783850209
 32
0.0
 13
708.5583597488075
 23
1104.852783850209
 33
0.0
  0
SOLID
  5
E7
330
D6
100
AcDbEntity
  8
0
 62
     0
100
AcDbTrace
 10
906.0583597488076
 20
1105.269450516876
 30
0.0
 11
906.0583597488076
 21
1104.436117183542
 31
0.0
 12
908.5583597488076
 22
1104.852783850209
 32
0.0
 13
908.5583597488076
 23
1104.852783850209
 33
0.0
  0
MTEXT
  5
E8
330
D6
100
AcDbEntity
  8
0
 62
     0
100
AcDbMText
 10
808.5583597488076
 20
1106.727783850209
 30
0.0
 40
2.5
 41
0.0
 71
     5
 72
     1
  1
200
 73
     1
 44
1.0
  0
POINT
  5
E9
330
D6
100
AcDbEntity
  8
Defpoints
 62
     0
100
AcDbPoint
 10
708.5583597488075
 20
1080.243859180261
 30
0.0
  0
POINT
  5
EA
330
D6
100
AcDbEntity
  8
Defpoints
 62
     0
100
AcDbPoint
 10
908.5583597488076
 20
1080.243859180261
 30
0.0
  0
POINT
  5
EB
330
D6
100
AcDbEntity
  8
Defpoints
 62
     0
100
AcDbPoint
 10
908.5583597488076
 20
1104.852783850209
 30
0.0
  0
ENDBLK
  5
E1
330
D6
100
AcDbEntity
  8
0
100
AcDbBlockEnd
  0
BLOCK
  5
F8
330
EE
100
AcDbEntity
  8
0
100
AcDbBlockBegin
  2
*D2
 70
     1
 10
0.0
 20
0.0
 30
0.0
  3
*D2
  1

  0
LINE
  5
FB
330
EE
100
AcDbEntity
  8
0
 62
     0
370
    -2
100
AcDbLine
 10
909.1833597488076
 20
1080.243859180261
 30
0.0
 11
939.5347607107114
 21
1080.243859180261
 31
0.0
  0
LINE
  5
FC
330
EE
100
AcDbEntity
  8
0
 62
     0
370
    -2
100
AcDbLine
 10
909.1833597488076
 20
815.2438591802606
 30
0.0
 11
939.5347607107114
 21
815.2438591802606
 31
0.0
  0
LINE
  5
FD
330
EE
100
AcDbEntity
  8
0
 62
     0
370
    -2
100
AcDbLine
 10
938.2847607107112
 20
1077.743859180261
 30
0.0
 11
938.2847607107112
 21
817.7438591802607
 31
0.0
  0
SOLID
  5
FE
330
EE
100
AcDbEntity
  8
0
 62
     0
100
AcDbTrace
 10
937.8680940440448
 20
1077.743859180261
 30
0.0
 11
938.7014273773779
 21
1077.743859180261
 31
0.0
 12
938.2847607107112
 22
1080.243859180261
 32
0.0
 13
938.2847607107112
 23
1080.243859180261
 33
0.0
  0
SOLID
  5
FF
330
EE
100
AcDbEntity
  8
0
 62
     0
100
AcDbTrace
 10
937.8680940440448
 20
817.7438591802607
 30
0.0
 11
938.7014273773779
 21
817.7438591802607
 31
0.0
 12
938.2847607107112
 22
815.2438591802606
 32
0.0
 13
938.2847607107112
 23
815.2438591802606
 33
0.0
  0
MTEXT
  5
100
330
EE
100
AcDbEntity
  8
0
 62
     0
100
AcDbMText
 10
936.4097607107114
 20
947.7438591802608
 30
0.0
 40
2.5
 41
0.0
 71
     5
 72
     1
  1
265
 11
0.0000000000000001
 21
1.0
 31
0.0
 73
     1
 44
1.0
  0
POINT
  5
101
330
EE
100
AcDbEntity
  8
Defpoints
 62
     0
100
AcDbPoint
 10
908.5583597488076
 20
1080.243859180261
 30
0.0
  0
POINT
  5
102
330
EE
100
AcDbEntity
  8
Defpoints
 62
     0
100
AcDbPoint
 10
908.5583597488076
 20
815.2438591802606
 30
0.0
  0
POINT
  5
103
330
EE
100
AcDbEntity
  8
Defpoints
 62
     0
100
AcDbPoint
 10
938.2847607107112
 20
815.2438591802606
 30
0.0
  0
ENDBLK
  5
F9
330
EE
100
AcDbEntity
  8
0
100
AcDbBlockEnd
  0
BLOCK
  5
110
330
106
100
AcDbEntity
  8
0
100
AcDbBlockBegin
  2
*D3
 70
     1
 10
0.0
 20
0.0
 30
0.0
  3
*D3
  1

  0
LINE
  5
113
330
106
100
AcDbEntity
  8
0
 62
     0
370
    -2
100
AcDbLine
 10
728.5583597488075
 20
1059.61885918026
 30
0.0
 11
728.5583597488075
 21
1016.337711638699
 31
0.0
  0
LINE
  5
114
330
106
100
AcDbEntity
  8
0
 62
     0
370
    -2
100
AcDbLine
 10
888.5583597488077
 20
1059.61885918026
 30
0.0
 11
888.5583597488077
 21
1016.337711638699
 31
0.0
  0
LINE
  5
115
330
106
100
AcDbEntity
  8
0
 62
     0
370
    -2
100
AcDbLine
 10
731.0583597488077
 20
1017.587711638699
 30
0.0
 11
886.0583597488076
 21
1017.587711638699
 31
0.0
  0
SOLID
  5
116
330
106
100
AcDbEntity
  8
0
 62
     0
100
AcDbTrace
 10
731.0583597488077
 20
1018.004378305366
 30
0.0
 11
731.0583597488077
 21
1017.171044972032
 31
0.0
 12
728.5583597488075
 22
1017.587711638699
 32
0.0
 13
728.5583597488075
 23
1017.587711638699
 33
0.0
  0
SOLID
  5
117
330
106
100
AcDbEntity
  8
0
 62
     0
100
AcDbTrace
 10
886.0583597488076
 20
1018.004378305366
 30
0.0
 11
886.0583597488076
 21
1017.171044972032
 31
0.0
 12
888.5583597488077
 22
1017.587711638699
 32
0.0
 13
888.5583597488077
 23
1017.587711638699
 33
0.0
  0
MTEXT
  5
118
330
106
100
AcDbEntity
  8
0
 62
     0
100
AcDbMText
 10
808.5583597488076
 20
1019.462711638699
 30
0.0
 40
2.5
 41
0.0
 71
     5
 72
     1
  1
160
 73
     1
 44
1.0
  0
POINT
  5
119
330
106
100
AcDbEntity
  8
Defpoints
 62
     0
100
AcDbPoint
 10
728.5583597488075
 20
1060.24385918026
 30
0.0
  0
POINT
  5
11A
330
106
100
AcDbEntity
  8
Defpoints
 62
     0
100
AcDbPoint
 10
888.5583597488077
 20
1060.24385918026
 30
0.0
  0
POINT
  5
11B
330
106
100
AcDbEntity
  8
Defpoints
 62
     0
100
AcDbPoint
 10
888.5583597488077
 20
1017.587711638699
 30
0.0
  0
ENDBLK
  5
111
330
106
100
AcDbEntity
  8
0
100
AcDbBlockEnd
  0
BLOCK
  5
128
330
11E
100
AcDbEntity
  8
0
100
AcDbBlockBegin
  2
*D4
 70
     1
 10
0.0
 20
0.0
 30
0.0
  3
*D4
  1

  0
LINE
  5
11F
330
11E
100
AcDbEntity
  8
0
 62
     0
370
    -2
100
AcDbLine
 10
727.9333597488077
 20
1059.61885918026
 30
0.0
 11
663.1917861664087
 21
1059.61885918026
 31
0.0
  0
LINE
  5
120
330
11E
100
AcDbEntity
  8
0
 62
     0
370
    -2
100
AcDbLine
 10
727.9333597488077
 20
835.2438591802606
 30
0.0
 11
663.1917861664087
 21
835.2438591802606
 31
0.0
  0
LINE
  5
121
330
11E
100
AcDbEntity
  8
0
 62
     0
370
    -2
100
AcDbLine
 10
664.4417861664087
 20
1057.11885918026
 30
0.0
 11
664.4417861664087
 21
837.7438591802606
 31
0.0
  0
SOLID
  5
122
330
11E
100
AcDbEntity
  8
0
 62
     0
100
AcDbTrace
 10
664.0251194997421
 20
1057.11885918026
 30
0.0
 11
664.8584528330752
 21
1057.11885918026
 31
0.0
 12
664.4417861664087
 22
1059.61885918026
 32
0.0
 13
664.4417861664087
 23
1059.61885918026
 33
0.0
  0
SOLID
  5
123
330
11E
100
AcDbEntity
  8
0
 62
     0
100
AcDbTrace
 10
664.0251194997421
 20
837.7438591802606
 30
0.0
 11
664.8584528330752
 21
837.7438591802606
 31
0.0
 12
664.4417861664087
 22
835.2438591802606
 32
0.0
 13
664.4417861664087
 23
835.2438591802606
 33
0.0
  0
MTEXT
  5
124
330
11E
100
AcDbEntity
  8
0
 62
     0
100
AcDbMText
 10
662.3584528330752
 20
947.4313591802607
 30
0.0
 40
2.5
 41
0.0
 71
     5
 72
     1
  1
224,38
 11
0.0000000000000001
 21
1.0
 31
0.0
 73
     1
 44
1.0
  0
POINT
  5
125
330
11E
100
AcDbEntity
  8
Defpoints
 62
     0
100
AcDbPoint
 10
728.5583597488075
 20
1059.61885918026
 30
0.0
  0
POINT
  5
126
330
11E
100
AcDbEntity
  8
Defpoints
 62
     0
100
AcDbPoint
 10
728.5583597488075
 20
835.2438591802606
 30
0.0
  0
POINT
  5
127
330
11E
100
AcDbEntity
  8
Defpoints
 62
     0
100
AcDbPoint
 10
664.4417861664087
 20
835.2438591802606
 30
0.0
  0
ENDBLK
  5
129
330
11E
100
AcDbEntity
  8
0
100
AcDbBlockEnd
  0
BLOCK
  5
135
330
12B
100
AcDbEntity
  8
0
100
AcDbBlockBegin
  2
*D5
 70
     1
 10
0.0
 20
0.0
 30
0.0
  3
*D5
  1

  0
LINE
  5
138
330
12B
100
AcDbEntity
  8
0
 62
     0
370
    -2
100
AcDbLine
 10
715.9333597488076
 20
1040.24385918026
 30
0.0
 11
684.1514833429608
 21
1040.24385918026
 31
0.0
  0
LINE
  5
139
330
12B
100
AcDbEntity
  8
0
 62
     0
370
    -2
100
AcDbLine
 10
715.9333597488076
 20
1080.243859180261
 30
0.0
 11
684.1514833429608
 21
1080.243859180261
 31
0.0
  0
LINE
  5
13A
330
12B
100
AcDbEntity
  8
0
 62
     0
370
    -2
100
AcDbLine
 10
685.401483342961
 20
1042.74385918026
 30
0.0
 11
685.401483342961
 21
1077.743859180261
 31
0.0
  0
SOLID
  5
13B
330
12B
100
AcDbEntity
  8
0
 62
     0
100
AcDbTrace
 10
684.9848166762942
 20
1042.74385918026
 30
0.0
 11
685.8181500096276
 21
1042.74385918026
 31
0.0
 12
685.401483342961
 22
1040.24385918026
 32
0.0
 13
685.401483342961
 23
1040.24385918026
 33
0.0
  0
SOLID
  5
13C
330
12B
100
AcDbEntity
  8
0
 62
     0
100
AcDbTrace
 10
684.9848166762942
 20
1077.743859180261
 30
0.0
 11
685.8181500096276
 21
1077.743859180261
 31
0.0
 12
685.401483342961
 22
1080.243859180261
 32
0.0
 13
685.401483342961
 23
1080.243859180261
 33
0.0
  0
MTEXT
  5
13D
330
12B
100
AcDbEntity
  8
0
 62
     0
100
AcDbMText
 10
683.5264833429609
 20
1060.24385918026
 30
0.0
 40
2.5
 41
0.0
 71
     5
 72
     1
  1
40
 11
0.0000000000000001
 21
1.0
 31
0.0
 73
     1
 44
1.0
  0
POINT
  5
13E
330
12B
100
AcDbEntity
  8
Defpoints
 62
     0
100
AcDbPoint
 10
716.5583597488075
 20
1040.24385918026
 30
0.0
  0
POINT
  5
13F
330
12B
100
AcDbEntity
  8
Defpoints
 62
     0
100
AcDbPoint
 10
716.5583597488075
 20
1080.243859180261
 30
0.0
  0
POINT
  5
140
330
12B
100
AcDbEntity
  8
Defpoints
 62
     0
100
AcDbPoint
 10
685.401483342961
 20
1080.243859180261
 30
0.0
  0
ENDBLK
  5
136
330
12B
100
AcDbEntity
  8
0
100
AcDbBlockEnd
  0
BLOCK
  5
14D
330
143
100
AcDbEntity
  8
0
100
AcDbBlockBegin
  2
*D6
 70
     1
 10
0.0
 20
0.0
 30
0.0
  3
*D6
  1

  0
LINE
  5
150
330
143
100
AcDbEntity
  8
0
 62
     0
370
    -2
100
AcDbLine
 10
715.9333597488073
 20
855.2438591802607
 30
0.0
 11
684.1514833429608
 21
855.2438591802607
 31
0.0
  0
LINE
  5
151
330
143
100
AcDbEntity
  8
0
 62
     0
370
    -2
100
AcDbLine
 10
715.9333597488073
 20
815.2438591802606
 30
0.0
 11
684.1514833429608
 21
815.2438591802606
 31
0.0
  0
LINE
  5
152
330
143
100
AcDbEntity
  8
0
 62
     0
370
    -2
100
AcDbLine
 10
685.401483342961
 20
852.7438591802606
 30
0.0
 11
685.401483342961
 21
817.7438591802607
 31
0.0
  0
SOLID
  5
153
330
143
100
AcDbEntity
  8
0
 62
     0
100
AcDbTrace
 10
684.9848166762942
 20
852.7438591802606
 30
0.0
 11
685.8181500096276
 21
852.7438591802606
 31
0.0
 12
685.401483342961
 22
855.2438591802607
 32
0.0
 13
685.401483342961
 23
855.2438591802607
 33
0.0
  0
SOLID
  5
154
330
143
100
AcDbEntity
  8
0
 62
     0
100
AcDbTrace
 10
684.9848166762942
 20
817.7438591802607
 30
0.0
 11
685.8181500096276
 21
817.7438591802607
 31
0.0
 12
685.401483342961
 22
815.2438591802606
 32
0.0
 13
685.401483342961
 23
815.2438591802606
 33
0.0
  0
MTEXT
  5
155
330
143
100
AcDbEntity
  8
0
 62
     0
100
AcDbMText
 10
683.5264833429607
 20
835.2438591802608
 30
0.0
 40
2.5
 41
0.0
 71
     5
 72
     1
  1
40
 11
0.0000000000000001
 21
1.0
 31
0.0
 73
     1
 44
1.0
  0
POINT
  5
156
330
143
100
AcDbEntity
  8
Defpoints
 62
     0
100
AcDbPoint
 10
716.5583597488073
 20
855.2438591802607
 30
0.0
  0
POINT
  5
157
330
143
100
AcDbEntity
  8
Defpoints
 62
     0
100
AcDbPoint
 10
716.5583597488073
 20
815.2438591802606
 30
0.0
  0
POINT
  5
158
330
143
100
AcDbEntity
  8
Defpoints
 62
     0
100
AcDbPoint
 10
685.401483342961
 20
815.2438591802606
 30
0.0
  0
ENDBLK
  5
14E
330
143
100
AcDbEntity
  8
0
100
AcDbBlockEnd
  0
BLOCK
  5
165
330
15B
100
AcDbEntity
  8
0
100
AcDbBlockBegin
  2
*D7
 70
     1
 10
0.0
 20
0.0
 30
0.0
  3
*D7
  1

  0
LINE
  5
168
330
15B
100
AcDbEntity
  8
0
 62
     0
370
    -2
100
AcDbLine
 10
868.5583597488076
 20
1072.86885918026
 30
0.0
 11
868.5583597488076
 21
1123.130269479517
 31
0.0
  0
LINE
  5
169
330
15B
100
AcDbEntity
  8
0
 62
     0
370
    -2
100
AcDbLine
 10
908.5583597488076
 20
1072.86885918026
 30
0.0
 11
908.5583597488076
 21
1123.130269479517
 31
0.0
  0
LINE
  5
16A
330
15B
100
AcDbEntity
  8
0
 62
     0
370
    -2
100
AcDbLine
 10
871.0583597488076
 20
1121.880269479517
 30
0.0
 11
906.0583597488076
 21
1121.880269479517
 31
0.0
  0
SOLID
  5
16B
330
15B
100
AcDbEntity
  8
0
 62
     0
100
AcDbTrace
 10
871.0583597488076
 20
1122.296936146184
 30
0.0
 11
871.0583597488076
 21
1121.46360281285
 31
0.0
 12
868.5583597488076
 22
1121.880269479517
 32
0.0
 13
868.5583597488076
 23
1121.880269479517
 33
0.0
  0
SOLID
  5
16C
330
15B
100
AcDbEntity
  8
0
 62
     0
100
AcDbTrace
 10
906.0583597488076
 20
1122.296936146184
 30
0.0
 11
906.0583597488076
 21
1121.46360281285
 31
0.0
 12
908.5583597488076
 22
1121.880269479517
 32
0.0
 13
908.5583597488076
 23
1121.880269479517
 33
0.0
  0
MTEXT
  5
16D
330
15B
100
AcDbEntity
  8
0
 62
     0
100
AcDbMText
 10
888.5583597488075
 20
1123.755269479517
 30
0.0
 40
2.5
 41
0.0
 71
     5
 72
     1
  1
40
 73
     1
 44
1.0
  0
POINT
  5
16E
330
15B
100
AcDbEntity
  8
Defpoints
 62
     0
100
AcDbPoint
 10
868.5583597488076
 20
1072.24385918026
 30
0.0
  0
POINT
  5
16F
330
15B
100
AcDbEntity
  8
Defpoints
 62
     0
100
AcDbPoint
 10
908.5583597488076
 20
1072.24385918026
 30
0.0
  0
POINT
  5
170
330
15B
100
AcDbEntity
  8
Defpoints
 62
     0
100
AcDbPoint
 10
908.5583597488076
 20
1121.880269479517
 30
0.0
  0
ENDBLK
  5
166
330
15B
100
AcDbEntity
  8
0
100
AcDbBlockEnd
  0
ENDSEC
  0
SECTION
  2
ENTITIES
  0
LWPOLYLINE
  5
88
102
{ACAD_REACTORS
330
EC
330
104
102
}
330
1F
100
AcDbEntity
  8
0
100
AcDbPolyline
 90
        4
 70
     1
 43
0.0
 10
708.5583597488075
 20
815.2438591802606
 10
908.5583597488076
 20
815.2438591802606
 10
908.5583597488076
 20
1080.243859180261
 10
708.5583597488075
 20
1080.243859180261
  0
CIRCLE
  5
C4
102
{ACAD_REACTORS
330
141
102
}
330
1F
100
AcDbEntity
  8
0
100
AcDbCircle
 10
716.5583597488075
 20
1040.24385918026
 30
0.0
 40
2.1
  0
CIRCLE
  5
C5
330
1F
100
AcDbEntity
  8
0
100
AcDbCircle
 10
716.5583597488075
 20
947.7438591802606
 30
0.0
 40
2.1
  0
CIRCLE
  5
C6
102
{ACAD_REACTORS
330
159
102
}
330
1F
100
AcDbEntity
  8
0
100
AcDbCircle
 10
716.5583597488073
 20
855.2438591802607
 30
0.0
 40
2.1
  0
CIRCLE
  5
C7
330
1F
100
AcDbEntity
  8
0
100
AcDbCircle
 10
748.5583597488073
 20
823.2438591802607
 30
0.0
 40
2.1
  0
CIRCLE
  5
C8
330
1F
100
AcDbEntity
  8
0
100
AcDbCircle
 10
808.5583597488076
 20
823.2438591802607
 30
0.0
 40
2.1
  0
CIRCLE
  5
C9
330
1F
100
AcDbEntity
  8
0
100
AcDbCircle
 10
868.5583597488074
 20
823.2438591802607
 30
0.0
 40
2.1
  0
CIRCLE
  5
CA
330
1F
100
AcDbEntity
  8
0
100
AcDbCircle
 10
900.5583597488076
 20
855.2438591802607
 30
0.0
 40
2.1
  0
CIRCLE
  5
CB
330
1F
100
AcDbEntity
  8
0
100
AcDbCircle
 10
900.5583597488076
 20
947.7438591802606
 30
0.0
 40
2.1
  0
CIRCLE
  5
CC
330
1F
100
AcDbEntity
  8
0
100
AcDbCircle
 10
900.5583597488076
 20
1040.24385918026
 30
0.0
 40
2.1
  0
CIRCLE
  5
CD
102
{ACAD_REACTORS
330
171
102
}
330
1F
100
AcDbEntity
  8
0
100
AcDbCircle
 10
868.5583597488076
 20
1072.24385918026
 30
0.0
 40
2.1
  0
CIRCLE
  5
CE
330
1F
100
AcDbEntity
  8
0
100
AcDbCircle
 10
808.5583597488076
 20
1072.24385918026
 30
0.0
 40
2.1
  0
CIRCLE
  5
CF
330
1F
100
AcDbEntity
  8
0
100
AcDbCircle
 10
748.5583597488076
 20
1072.24385918026
 30
0.0
 40
2.1
  0
LWPOLYLINE
  5
D0
102
{ACAD_REACTORS
330
11C
102
}
330
1F
100
AcDbEntity
  8
0
100
AcDbPolyline
 90
        4
 70
     1
 43
0.0
 10
888.5583597488077
 20
1060.24385918026
 10
888.5583597488075
 20
835.2438591802606
 10
728.5583597488073
 20
835.2438591802606
 10
728.5583597488075
 20
1060.24385918026
  0
DIMENSION
  5
D4
102
{ACAD_XDICTIONARY
360
E2
102
}
102
{ACAD_REACTORS
330
EC
102
}
330
1F
100
AcDbEntity
  8
0
100
AcDbDimension
  2
*D1
 10
908.5583597488076
 20
1104.852783850209
 30
0.0
 11
808.5583597488076
 21
1106.727783850209
 31
0.0
 70
    32
 71
     5
 42
200.0
  3
ISO-25
100
AcDbAlignedDimension
 13
708.5583597488075
 23
1080.243859180261
 33
0.0
 14
908.5583597488076
 24
1080.243859180261
 34
0.0
100
AcDbRotatedDimension
  0
DIMENSION
  5
ED
102
{ACAD_XDICTIONARY
360
FA
102
}
102
{ACAD_REACTORS
330
104
102
}
330
1F
100
AcDbEntity
  8
0
100
AcDbDimension
  2
*D2
 10
938.2847607107112
 20
815.2438591802606
 30
0.0
 11
936.4097607107114
 21
947.7438591802608
 31
0.0
 70
    32
 71
     5
 42
265.0
  3
ISO-25
100
AcDbAlignedDimension
 13
908.5583597488076
 23
1080.243859180261
 33
0.0
 14
908.5583597488076
 24
815.2438591802606
 34
0.0
 50
90.0
100
AcDbRotatedDimension
  0
DIMENSION
  5
105
102
{ACAD_XDICTIONARY
360
112
102
}
102
{ACAD_REACTORS
330
11C
102
}
330
1F
100
AcDbEntity
  8
0
100
AcDbDimension
  2
*D3
 10
888.5583597488077
 20
1017.587711638699
 30
0.0
 11
808.5583597488076
 21
1019.462711638699
 31
0.0
 70
    32
 71
     5
 42
160.0000000000001
  3
ISO-25
100
AcDbAlignedDimension
 13
728.5583597488075
 23
1060.24385918026
 33
0.0
 14
888.5583597488077
 24
1060.24385918026
 34
0.0
100
AcDbRotatedDimension
  0
DIMENSION
  5
11D
330
1F
100
AcDbEntity
  8
0
100
AcDbDimension
  2
*D4
 10
664.4417861664087
 20
835.2438591802606
 30
0.0
 11
662.3584528330752
 21
947.4313591802607
 31
0.0
 70
    32
 71
     5
 42
224.3750000000001
  3
ISO-25
100
AcDbAlignedDimension
 13
728.5583597488075
 23
1059.61885918026
 33
0.0
 14
728.5583597488075
 24
835.2438591802606
 34
0.0
 50
90.0
100
AcDbRotatedDimension
  0
DIMENSION
  5
12A
102
{ACAD_XDICTIONARY
360
137
102
}
102
{ACAD_REACTORS
330
141
102
}
330
1F
100
AcDbEntity
  8
0
100
AcDbDimension
  2
*D5
 10
685.401483342961
 20
1080.243859180261
 30
0.0
 11
683.5264833429609
 21
1060.24385918026
 31
0.0
 70
    32
 71
     5
 42
40.0
  3
ISO-25
100
AcDbAlignedDimension
 13
716.5583597488075
 23
1040.24385918026
 33
0.0
 14
716.5583597488075
 24
1080.243859180261
 34
0.0
 50
90.0
100
AcDbRotatedDimension
  0
DIMENSION
  5
142
102
{ACAD_XDICTIONARY
360
14F
102
}
102
{ACAD_REACTORS
330
159
102
}
330
1F
100
AcDbEntity
  8
0
100
AcDbDimension
  2
*D6
 10
685.401483342961
 20
815.2438591802606
 30
0.0
 11
683.5264833429607
 21
835.2438591802608
 31
0.0
 70
    32
 71
     5
 42
40.0
  3
ISO-25
100
AcDbAlignedDimension
 13
716.5583597488073
 23
855.2438591802607
 33
0.0
 14
716.5583597488073
 24
815.2438591802606
 34
0.0
 50
90.0
100
AcDbRotatedDimension
  0
DIMENSION
  5
15A
102
{ACAD_XDICTIONARY
360
167
102
}
102
{ACAD_REACTORS
330
171
102
}
330
1F
100
AcDbEntity
  8
0
100
AcDbDimension
  2
*D7
 10
908.5583597488076
 20
1121.880269479517
 30
0.0
 11
888.5583597488075
 21
1123.755269479517
 31
0.0
 70
    32
 71
     5
 42
40.0
  3
ISO-25
100
AcDbAlignedDimension
 13
868.5583597488076
 23
1072.24385918026
 33
0.0
 14
908.5583597488076
 24
1072.24385918026
 34
0.0
100
AcDbRotatedDimension
  0
ENDSEC
  0
SECTION
  2
OBJECTS
  0
DICTIONARY
  5
C
330
0
100
AcDbDictionary
281
     1
  3
ACAD_COLOR
350
6B
  3
ACAD_GROUP
350
D
  3
ACAD_LAYOUT
350
1A
  3
ACAD_MATERIAL
350
6A
  3
ACAD_MLINESTYLE
350
17
  3
ACAD_PLOTSETTINGS
350
19
  3
ACAD_PLOTSTYLENAME
350
E
  3
AcDbVariableDictionary
350
5E
  0
DICTIONARY
  5
E2
330
D4
100
AcDbDictionary
280
     1
281
     1
  3
ACAD_DIMASSOC
360
EC
  0
DICTIONARY
  5
FA
330
ED
100
AcDbDictionary
280
     1
281
     1
  3
ACAD_DIMASSOC
360
104
  0
DICTIONARY
  5
112
330
105
100
AcDbDictionary
280
     1
281
     1
  3
ACAD_DIMASSOC
360
11C
  0
DICTIONARY
  5
137
330
12A
100
AcDbDictionary
280
     1
281
     1
  3
ACAD_DIMASSOC
360
141
  0
DICTIONARY
  5
14F
330
142
100
AcDbDictionary
280
     1
281
     1
  3
ACAD_DIMASSOC
360
159
  0
DICTIONARY
  5
167
330
15A
100
AcDbDictionary
280
     1
281
     1
  3
ACAD_DIMASSOC
360
171
  0
DICTIONARY
  5
6B
102
{ACAD_REACTORS
330
C
102
}
330
C
100
AcDbDictionary
281
     1
  0
DICTIONARY
  5
D
102
{ACAD_REACTORS
330
C
102
}
330
C
100
AcDbDictionary
281
     1
  0
DICTIONARY
  5
1A
102
{ACAD_REACTORS
330
C
102
}
330
C
100
AcDbDictionary
281
     1
  3
Model
350
22
  3
布局1
350
51
  3
布局2
350
56
  0
DICTIONARY
  5
6A
102
{ACAD_REACTORS
330
C
102
}
330
C
100
AcDbDictionary
281
     1
  0
DICTIONARY
  5
17
102
{ACAD_REACTORS
330
C
102
}
330
C
100
AcDbDictionary
281
     1
  3
Standard
350
18
  0
DICTIONARY
  5
19
102
{ACAD_REACTORS
330
C
102
}
330
C
100
AcDbDictionary
281
     1
  0
ACDBDICTIONARYWDFLT
  5
E
102
{ACAD_REACTORS
330
C
102
}
330
C
100
AcDbDictionary
281
     1
  3
Normal
350
F
100
AcDbDictionaryWithDefault
340
F
  0
DICTIONARY
  5
5E
102
{ACAD_REACTORS
330
C
102
}
330
C
100
AcDbDictionary
281
     1
  3
DIMASSOC
350
5F
  3
HIDETEXT
350
63
  0
DIMASSOC
  5
EC
102
{ACAD_REACTORS
330
E2
102
}
330
E2
100
AcDbDimAssoc
330
D4
 90
        3
 70
     0
 71
     0
  1
AcDbOsnapPointRef
 72
     1
331
88
 73
     2
 91
        3
 40
1.0
 10
0.0
 20
0.0
 30
2.000000000000000E+50
 75
     0
  1
AcDbOsnapPointRef
 72
     1
331
88
 73
     2
 91
        2
 40
1.0
 10
0.0
 20
0.0
 30
2.000000000000000E+50
 75
     0
  0
DIMASSOC
  5
104
102
{ACAD_REACTORS
330
FA
102
}
330
FA
100
AcDbDimAssoc
330
ED
 90
        3
 70
     0
 71
     0
  1
AcDbOsnapPointRef
 72
     1
331
88
 73
     2
 91
        2
 40
1.0
 10
0.0
 20
0.0
 30
2.000000000000000E+50
 75
     0
  1
AcDbOsnapPointRef
 72
     1
331
88
 73
     2
 91
        1
 40
1.0
 10
0.0
 20
0.0
 30
2.000000000000000E+50
 75
     0
  0
DIMASSOC
  5
11C
102
{ACAD_REACTORS
330
112
102
}
330
112
100
AcDbDimAssoc
330
105
 90
        1
 70
     0
 71
     0
  1
AcDbOsnapPointRef
 72
     1
331
D0
 73
     2
 91
        3
 40
1.0
 10
0.0
 20
0.0
 30
2.000000000000000E+50
 75
     0
  0
DIMASSOC
  5
141
102
{ACAD_REACTORS
330
137
102
}
330
137
100
AcDbDimAssoc
330
12A
 90
        1
 70
     0
 71
     0
  1
AcDbOsnapPointRef
 72
     3
331
C4
 73
     2
 91
        0
 40
0.0
 10
0.0
 20
0.0
 30
0.0
 75
     0
  0
DIMASSOC
  5
159
102
{ACAD_REACTORS
330
14F
102
}
330
14F
100
AcDbDimAssoc
330
142
 90
        1
 70
     0
 71
     0
  1
AcDbOsnapPointRef
 72
     3
331
C6
 73
     2
 91
        0
 40
0.0
 10
0.0
 20
0.0
 30
0.0
 75
     0
  0
DIMASSOC
  5
171
102
{ACAD_REACTORS
330
167
102
}
330
167
100
AcDbDimAssoc
330
15A
 90
        1
 70
     0
 71
     0
  1
AcDbOsnapPointRef
 72
     3
331
CD
 73
     2
 91
        0
 40
0.0
 10
0.0
 20
0.0
 30
0.0
 75
     0
  0
LAYOUT
  5
22
102
{ACAD_REACTORS
330
1A
102
}
330
1A
100
AcDbPlotSettings
  1

  2
none_device
  4
ANSI_A_(8.50_x_11.00_Inches)
  6

 40
6.349999904632567
 41
19.04999923706055
 42
6.350006103515625
 43
19.04998779296875
 44
215.8999938964844
 45
279.3999938964844
 46
0.0
 47
0.0
 48
0.0
 49
0.0
140
0.0
141
0.0
142
1.0
143
78.436453180766
 70
 11952
 72
     0
 73
     1
 74
     0
  7

 75
     0
147
0.0127491741332998
 76
     0
 77
     2
 78
   300
148
0.0
149
0.0
100
AcDbLayout
  1
Model
 70
     1
 71
     0
 10
0.0
 20
0.0
 11
12.0
 21
9.0
 12
0.0
 22
0.0
 32
0.0
 14
0.0
 24
0.0
 34
0.0
 15
0.0
 25
0.0
 35
0.0
146
0.0
 13
0.0
 23
0.0
 33
0.0
 16
1.0
 26
0.0
 36
0.0
 17
0.0
 27
1.0
 37
0.0
 76
     0
330
1F
  0
LAYOUT
  5
51
102
{ACAD_REACTORS
330
1A
102
}
330
1A
100
AcDbPlotSettings
  1

  2
None
  4

  6

 40
0.0
 41
0.0
 42
0.0
 43
0.0
 44
0.0
 45
0.0
 46
0.0
 47
0.0
 48
0.0
 49
0.0
140
0.0
141
0.0
142
1.0
143
1.0
 70
   688
 72
     0
 73
     0
 74
     5
  7

 75
    16
147
1.0
 76
     0
 77
     2
 78
   300
148
0.0
149
0.0
100
AcDbLayout
  1
布局1
 70
     1
 71
     1
 10
0.0
 20
0.0
 11
12.0
 21
9.0
 12
0.0
 22
0.0
 32
0.0
 14
0.0
 24
0.0
 34
0.0
 15
0.0
 25
0.0
 35
0.0
146
0.0
 13
0.0
 23
0.0
 33
0.0
 16
1.0
 26
0.0
 36
0.0
 17
0.0
 27
1.0
 37
0.0
 76
     0
330
50
  0
LAYOUT
  5
56
102
{ACAD_REACTORS
330
1A
102
}
330
1A
100
AcDbPlotSettings
  1

  2
None
  4

  6

 40
0.0
 41
0.0
 42
0.0
 43
0.0
 44
0.0
 45
0.0
 46
0.0
 47
0.0
 48
0.0
 49
0.0
140
0.0
141
0.0
142
1.0
143
1.0
 70
   688
 72
     0
 73
     0
 74
     5
  7

 75
    16
147
1.0
 76
     0
 77
     2
 78
   300
148
0.0
149
0.0
100
AcDbLayout
  1
布局2
 70
     1
 71
     2
 10
0.0
 20
0.0
 11
12.0
 21
9.0
 12
0.0
 22
0.0
 32
0.0
 14
0.0
 24
0.0
 34
0.0
 15
0.0
 25
0.0
 35
0.0
146
0.0
 13
0.0
 23
0.0
 33
0.0
 16
1.0
 26
0.0
 36
0.0
 17
0.0
 27
1.0
 37
0.0
 76
     0
330
55
  0
MLINESTYLE
  5
18
102
{ACAD_REACTORS
330
17
102
}
330
17
100
AcDbMlineStyle
  2
STANDARD
 70
     0
  3

 62
   256
 51
90.0
 52
90.0
 71
     2
 49
0.5
 62
   256
  6
BYLAYER
 49
-0.5
 62
   256
  6
BYLAYER
  0
ACDBPLACEHOLDER
  5
F
102
{ACAD_REACTORS
330
E
102
}
330
E
  0
DICTIONARYVAR
  5
5F
102
{ACAD_REACTORS
330
5E
102
}
330
5E
100
DictionaryVariables
280
     0
  1
2
  0
DICTIONARYVAR
  5
63
102
{ACAD_REACTORS
330
5E
102
}
330
5E
100
DictionaryVariables
280
     0
  1
1
  0
ENDSEC
  0
EOF
