  0
SECTION
  2
HEADER
  9
$ACADVER
  1
AC1018
  9
$ACADMAINTVER
 70
     0
  9
$DWGCODEPAGE
  3
ANSI_936
  9
$INSBASE
 10
0.0
 20
0.0
 30
0.0
  9
$EXTMIN
 10
617.105844360884
 20
749.8689541059975
 30
0.0
  9
$EXTMAX
 10
1085.69783220235
 20
1412.930142592736
 30
0.0
  9
$LIMMIN
 10
0.0
 20
0.0
  9
$LIMMAX
 10
420.0
 20
297.0
  9
$ORTHOMODE
 70
     0
  9
$REGENMODE
 70
     1
  9
$FILLMODE
 70
     1
  9
$QTEXTMODE
 70
     0
  9
$MIRRTEXT
 70
     0
  9
$LTSCALE
 40
1.0
  9
$ATTMODE
 70
     1
  9
$TEXTSIZE
 40
2.5
  9
$TRACEWID
 40
1.0
  9
$TEXTSTYLE
  7
Standard
  9
$CLAYER
  8
0
  9
$CELTYPE
  6
ByLayer
  9
$CECOLOR
 62
   256
  9
$CELTSCALE
 40
1.0
  9
$DISPSILH
 70
     0
  9
$DIMSCALE
 40
1.0
  9
$DIMASZ
 40
2.5
  9
$DIMEXO
 40
0.625
  9
$DIMDLI
 40
3.75
  9
$DIMRND
 40
0.0
  9
$DIMDLE
 40
0.0
  9
$DIMEXE
 40
1.25
  9
$DIMTP
 40
0.0
  9
$DIMTM
 40
0.0
  9
$DIMTXT
 40
2.5
  9
$DIMCEN
 40
2.5
  9
$DIMTSZ
 40
0.0
  9
$DIMTOL
 70
     0
  9
$DIMLIM
 70
     0
  9
$DIMTIH
 70
     0
  9
$DIMTOH
 70
     0
  9
$DIMSE1
 70
     0
  9
$DIMSE2
 70
     0
  9
$DIMTAD
 70
     1
  9
$DIMZIN
 70
     8
  9
$DIMBLK
  1

  9
$DIMASO
 70
     1
  9
$DIMSHO
 70
     1
  9
$DIMPOST
  1

  9
$DIMAPOST
  1

  9
$DIMALT
 70
     0
  9
$DIMALTD
 70
     3
  9
$DIMALTF
 40
0.03937007874016
  9
$DIMLFAC
 40
1.0
  9
$DIMTOFL
 70
     1
  9
$DIMTVP
 40
0.0
  9
$DIMTIX
 70
     0
  9
$DIMSOXD
 70
     0
  9
$DIMSAH
 70
     0
  9
$DIMBLK1
  1

  9
$DIMBLK2
  1

  9
$DIMSTYLE
  2
ISO-25
  9
$DIMCLRD
 70
     0
  9
$DIMCLRE
 70
     0
  9
$DIMCLRT
 70
     0
  9
$DIMTFAC
 40
1.0
  9
$DIMGAP
 40
0.625
  9
$DIMJUST
 70
     0
  9
$DIMSD1
 70
     0
  9
$DIMSD2
 70
     0
  9
$DIMTOLJ
 70
     0
  9
$DIMTZIN
 70
     8
  9
$DIMALTZ
 70
     0
  9
$DIMALTTZ
 70
     0
  9
$DIMUPT
 70
     0
  9
$DIMDEC
 70
     2
  9
$DIMTDEC
 70
     2
  9
$DIMALTU
 70
     2
  9
$DIMALTTD
 70
     3
  9
$DIMTXSTY
  7
Standard
  9
$DIMAUNIT
 70
     0
  9
$DIMADEC
 70
     0
  9
$DIMALTRND
 40
0.0
  9
$DIMAZIN
 70
     0
  9
$DIMDSEP
 70
    44
  9
$DIMATFIT
 70
     3
  9
$DIMFRAC
 70
     0
  9
$DIMLDRBLK
  1

  9
$DIMLUNIT
 70
     2
  9
$DIMLWD
 70
    -2
  9
$DIMLWE
 70
    -2
  9
$DIMTMOVE
 70
     0
  9
$LUNITS
 70
     2
  9
$LUPREC
 70
     4
  9
$SKETCHINC
 40
1.0
  9
$FILLETRAD
 40
0.0
  9
$AUNITS
 70
     0
  9
$AUPREC
 70
     0
  9
$MENU
  1
.
  9
$ELEVATION
 40
0.0
  9
$PELEVATION
 40
0.0
  9
$THICKNESS
 40
0.0
  9
$LIMCHECK
 70
     0
  9
$CHAMFERA
 40
0.0
  9
$CHAMFERB
 40
0.0
  9
$CHAMFERC
 40
0.0
  9
$CHAMFERD
 40
0.0
  9
$SKPOLY
 70
     0
  9
$TDCREATE
 40
2458410.389401944
  9
$TDUCREATE
 40
2458410.056068611
  9
$TDUPDATE
 40
2458410.459773033
  9
$TDUUPDATE
 40
2458410.126439699
  9
$TDINDWG
 40
0.0703748843
  9
$TDUSRTIMER
 40
0.0703739815
  9
$USRTIMER
 70
     1
  9
$ANGBASE
 50
0.0
  9
$ANGDIR
 70
     0
  9
$PDMODE
 70
     0
  9
$PDSIZE
 40
0.0
  9
$PLINEWID
 40
0.0
  9
$SPLFRAME
 70
     0
  9
$SPLINETYPE
 70
     6
  9
$SPLINESEGS
 70
     8
  9
$HANDSEED
  5
2EA
  9
$SURFTAB1
 70
     6
  9
$SURFTAB2
 70
     6
  9
$SURFTYPE
 70
     6
  9
$SURFU
 70
     6
  9
$SURFV
 70
     6
  9
$UCSBASE
  2

  9
$UCSNAME
  2

  9
$UCSORG
 10
0.0
 20
0.0
 30
0.0
  9
$UCSXDIR
 10
1.0
 20
0.0
 30
0.0
  9
$UCSYDIR
 10
0.0
 20
1.0
 30
0.0
  9
$UCSORTHOREF
  2

  9
$UCSORTHOVIEW
 70
     0
  9
$UCSORGTOP
 10
0.0
 20
0.0
 30
0.0
  9
$UCSORGBOTTOM
 10
0.0
 20
0.0
 30
0.0
  9
$UCSORGLEFT
 10
0.0
 20
0.0
 30
0.0
  9
$UCSORGRIGHT
 10
0.0
 20
0.0
 30
0.0
  9
$UCSORGFRONT
 10
0.0
 20
0.0
 30
0.0
  9
$UCSORGBACK
 10
0.0
 20
0.0
 30
0.0
  9
$PUCSBASE
  2

  9
$PUCSNAME
  2

  9
$PUCSORG
 10
0.0
 20
0.0
 30
0.0
  9
$PUCSXDIR
 10
1.0
 20
0.0
 30
0.0
  9
$PUCSYDIR
 10
0.0
 20
1.0
 30
0.0
  9
$PUCSORTHOREF
  2

  9
$PUCSORTHOVIEW
 70
     0
  9
$PUCSORGTOP
 10
0.0
 20
0.0
 30
0.0
  9
$PUCSORGBOTTOM
 10
0.0
 20
0.0
 30
0.0
  9
$PUCSORGLEFT
 10
0.0
 20
0.0
 30
0.0
  9
$PUCSORGRIGHT
 10
0.0
 20
0.0
 30
0.0
  9
$PUCSORGFRONT
 10
0.0
 20
0.0
 30
0.0
  9
$PUCSORGBACK
 10
0.0
 20
0.0
 30
0.0
  9
$USERI1
 70
     0
  9
$USERI2
 70
     0
  9
$USERI3
 70
     0
  9
$USERI4
 70
     0
  9
$USERI5
 70
     0
  9
$USERR1
 40
0.0
  9
$USERR2
 40
0.0
  9
$USERR3
 40
0.0
  9
$USERR4
 40
0.0
  9
$USERR5
 40
0.0
  9
$WORLDVIEW
 70
     1
  9
$SHADEDGE
 70
     3
  9
$SHADEDIF
 70
    70
  9
$TILEMODE
 70
     1
  9
$MAXACTVP
 70
    64
  9
$PINSBASE
 10
0.0
 20
0.0
 30
0.0
  9
$PLIMCHECK
 70
     0
  9
$PEXTMIN
 10
0.0
 20
0.0
 30
0.0
  9
$PEXTMAX
 10
0.0
 20
0.0
 30
0.0
  9
$PLIMMIN
 10
0.0
 20
0.0
  9
$PLIMMAX
 10
12.0
 20
9.0
  9
$UNITMODE
 70
     0
  9
$VISRETAIN
 70
     1
  9
$PLINEGEN
 70
     0
  9
$PSLTSCALE
 70
     1
  9
$TREEDEPTH
 70
  3020
  9
$CMLSTYLE
  2
Standard
  9
$CMLJUST
 70
     0
  9
$CMLSCALE
 40
20.0
  9
$PROXYGRAPHICS
 70
     1
  9
$MEASUREMENT
 70
     1
  9
$CELWEIGHT
370
    -1
  9
$ENDCAPS
280
     0
  9
$JOINSTYLE
280
     0
  9
$LWDISPLAY
290
     0
  9
$INSUNITS
 70
     4
  9
$HYPERLINKBASE
  1

  9
$STYLESHEET
  1

  9
$XEDIT
290
     1
  9
$CEPSNTYPE
380
     0
  9
$PSTYLEMODE
290
     1
  9
$FINGERPRINTGUID
  2
{FDEAD578-A652-11D2-9A35-0060089B3A3F}
  9
$VERSIONGUID
  2
{FBFBA06C-3B67-418A-A698-56D37111050D}
  9
$EXTNAMES
290
     1
  9
$PSVPSCALE
 40
0.0
  9
$OLESTARTUP
290
     0
  9
$SORTENTS
280
   127
  9
$INDEXCTL
280
     0
  9
$HIDETEXT
280
     1
  9
$XCLIPFRAME
290
     0
  9
$HALOGAP
280
     0
  9
$OBSCOLOR
 70
   257
  9
$OBSLTYPE
280
     0
  9
$INTERSECTIONDISPLAY
280
     0
  9
$INTERSECTIONCOLOR
 70
   257
  9
$DIMASSOC
280
     2
  9
$PROJECTNAME
  1

  0
ENDSEC
  0
SECTION
  2
CLASSES
  0
CLASS
  1
ACDBDICTIONARYWDFLT
  2
AcDbDictionaryWithDefault
  3
ObjectDBX Classes
 90
        0
 91
        1
280
     0
281
     0
  0
CLASS
  1
DICTIONARYVAR
  2
AcDbDictionaryVar
  3
ObjectDBX Classes
 90
        0
 91
        2
280
     0
281
     0
  0
CLASS
  1
DIMASSOC
  2
AcDbDimAssoc
  3
"AcDbDimAssoc|Product Desc:     AcDim ARX App For Dimension|Company:          Autodesk, Inc.|WEB Address:      www.autodesk.com"
 90
        0
 91
       16
280
     0
281
     0
  0
ENDSEC
  0
SECTION
  2
TABLES
  0
TABLE
  2
VPORT
  5
8
330
0
100
AcDbSymbolTable
 70
     7
  0
VPORT
  5
2E9
330
8
100
AcDbSymbolTableRecord
100
AcDbViewportTableRecord
  2
*Active
 70
     0
 10
0.0
 20
0.0
 11
1.0
 21
1.0
 12
913.4352617509494
 22
1169.190134668179
 13
0.0
 23
0.0
 14
10.0
 24
10.0
 15
10.0
 25
10.0
 16
0.0
 26
0.0
 36
1.0
 17
0.0
 27
0.0
 37
0.0
 40
781.2930189600733
 41
1.576517150395778
 42
50.0
 43
0.0
 44
0.0
 50
0.0
 51
0.0
 71
     0
 72
  1000
 73
     1
 74
     3
 75
     0
 76
     0
 77
     0
 78
     0
281
     0
 65
     1
110
0.0
120
0.0
130
0.0
111
1.0
121
0.0
131
0.0
112
0.0
122
1.0
132
0.0
 79
     0
146
0.0
  0
ENDTAB
  0
TABLE
  2
LTYPE
  5
5
330
0
100
AcDbSymbolTable
 70
     1
  0
LTYPE
  5
14
330
5
100
AcDbSymbolTableRecord
100
AcDbLinetypeTableRecord
  2
ByBlock
 70
     0
  3

 72
    65
 73
     0
 40
0.0
  0
LTYPE
  5
15
330
5
100
AcDbSymbolTableRecord
100
AcDbLinetypeTableRecord
  2
ByLayer
 70
     0
  3

 72
    65
 73
     0
 40
0.0
  0
LTYPE
  5
16
330
5
100
AcDbSymbolTableRecord
100
AcDbLinetypeTableRecord
  2
Continuous
 70
     0
  3
Solid line
 72
    65
 73
     0
 40
0.0
  0
ENDTAB
  0
TABLE
  2
LAYER
  5
2
330
0
100
AcDbSymbolTable
 70
     2
  0
LAYER
  5
10
330
2
100
AcDbSymbolTableRecord
100
AcDbLayerTableRecord
  2
0
 70
     0
 62
     7
  6
Continuous
370
    -3
390
F
  0
LAYER
  5
D5
330
2
100
AcDbSymbolTableRecord
100
AcDbLayerTableRecord
  2
Defpoints
 70
     0
 62
     7
  6
Continuous
290
     0
370
    -3
390
F
  0
ENDTAB
  0
TABLE
  2
STYLE
  5
3
330
0
100
AcDbSymbolTable
 70
     1
  0
STYLE
  5
11
330
3
100
AcDbSymbolTableRecord
100
AcDbTextStyleTableRecord
  2
Standard
 70
     0
 40
0.0
 41
1.0
 50
0.0
 71
     0
 42
2.5
  3
txt
  4

  0
ENDTAB
  0
TABLE
  2
VIEW
  5
6
330
0
100
AcDbSymbolTable
 70
     0
  0
ENDTAB
  0
TABLE
  2
UCS
  5
7
330
0
100
AcDbSymbolTable
 70
     0
  0
ENDTAB
  0
TABLE
  2
APPID
  5
9
330
0
100
AcDbSymbolTable
 70
     1
  0
APPID
  5
12
330
9
100
AcDbSymbolTableRecord
100
AcDbRegAppTableRecord
  2
ACAD
 70
     0
  0
ENDTAB
  0
TABLE
  2
DIMSTYLE
  5
A
330
0
100
AcDbSymbolTable
 70
     1
100
AcDbDimStyleTable
 71
     1
340
27
  0
DIMSTYLE
105
27
102
{ACAD_REACTORS
330
1F3
330
20B
330
223
330
253
330
26B
330
284
330
2A0
330
2B8
330
2D0
102
}
330
A
100
AcDbSymbolTableRecord
100
AcDbDimStyleTableRecord
  2
ISO-25
 70
     0
 41
2.5
 42
0.625
 43
3.75
 44
1.25
 73
     0
 74
     0
 77
     1
 78
     8
140
2.5
141
2.5
143
0.03937007874016
147
0.625
171
     3
172
     1
271
     2
272
     2
274
     3
278
    44
283
     0
284
     8
340
11
  0
ENDTAB
  0
TABLE
  2
BLOCK_RECORD
  5
1
330
0
100
AcDbSymbolTable
 70
    18
  0
BLOCK_RECORD
  5
1F
330
1
100
AcDbSymbolTableRecord
100
AcDbBlockTableRecord
  2
*Model_Space
340
22
  0
BLOCK_RECORD
  5
50
330
1
100
AcDbSymbolTableRecord
100
AcDbBlockTableRecord
  2
*Paper_Space
340
51
  0
BLOCK_RECORD
  5
55
330
1
100
AcDbSymbolTableRecord
100
AcDbBlockTableRecord
  2
*Paper_Space0
340
56
  0
BLOCK_RECORD
  5
D6
330
1
100
AcDbSymbolTableRecord
100
AcDbBlockTableRecord
  2
*D1
340
0
  0
BLOCK_RECORD
  5
EE
330
1
100
AcDbSymbolTableRecord
100
AcDbBlockTableRecord
  2
*D2
340
0
  0
BLOCK_RECORD
  5
106
330
1
100
AcDbSymbolTableRecord
100
AcDbBlockTableRecord
  2
*D3
340
0
  0
BLOCK_RECORD
  5
11E
330
1
100
AcDbSymbolTableRecord
100
AcDbBlockTableRecord
  2
*D4
340
0
  0
BLOCK_RECORD
  5
12B
330
1
100
AcDbSymbolTableRecord
100
AcDbBlockTableRecord
  2
*D5
340
0
  0
BLOCK_RECORD
  5
143
330
1
100
AcDbSymbolTableRecord
100
AcDbBlockTableRecord
  2
*D6
340
0
  0
BLOCK_RECORD
  5
15B
330
1
100
AcDbSymbolTableRecord
100
AcDbBlockTableRecord
  2
*D7
340
0
  0
BLOCK_RECORD
  5
1F4
330
1
100
AcDbSymbolTableRecord
100
AcDbBlockTableRecord
  2
*D8
340
0
  0
BLOCK_RECORD
  5
20C
330
1
100
AcDbSymbolTableRecord
100
AcDbBlockTableRecord
  2
*D9
340
0
  0
BLOCK_RECORD
  5
224
330
1
100
AcDbSymbolTableRecord
100
AcDbBlockTableRecord
  2
*D10
340
0
  0
BLOCK_RECORD
  5
23C
330
1
100
AcDbSymbolTableRecord
100
AcDbBlockTableRecord
  2
*D11
340
0
  0
BLOCK_RECORD
  5
254
330
1
100
AcDbSymbolTableRecord
100
AcDbBlockTableRecord
  2
*D12
340
0
  0
BLOCK_RECORD
  5
26C
330
1
100
AcDbSymbolTableRecord
100
AcDbBlockTableRecord
  2
*D13
340
0
  0
BLOCK_RECORD
  5
285
330
1
100
AcDbSymbolTableRecord
100
AcDbBlockTableRecord
  2
*D14
340
0
  0
BLOCK_RECORD
  5
2A1
330
1
100
AcDbSymbolTableRecord
100
AcDbBlockTableRecord
  2
*D15
340
0
  0
BLOCK_RECORD
  5
2B9
330
1
100
AcDbSymbolTableRecord
100
AcDbBlockTableRecord
  2
*D16
340
0
  0
BLOCK_RECORD
  5
2D1
330
1
100
AcDbSymbolTableRecord
100
AcDbBlockTableRecord
  2
*D17
340
0
  0
ENDTAB
  0
ENDSEC
  0
SECTION
  2
BLOCKS
  0
BLOCK
  5
20
330
1F
100
AcDbEntity
  8
0
100
AcDbBlockBegin
  2
*Model_Space
 70
     0
 10
0.0
 20
0.0
 30
0.0
  3
*Model_Space
  1

  0
ENDBLK
  5
21
330
1F
100
AcDbEntity
  8
0
100
AcDbBlockEnd
  0
BLOCK
  5
52
330
50
100
AcDbEntity
 67
     1
  8
0
100
AcDbBlockBegin
  2
*Paper_Space
 70
     0
 10
0.0
 20
0.0
 30
0.0
  3
*Paper_Space
  1

  0
ENDBLK
  5
53
330
50
100
AcDbEntity
 67
     1
  8
0
100
AcDbBlockEnd
  0
BLOCK
  5
57
330
55
100
AcDbEntity
  8
0
100
AcDbBlockBegin
  2
*Paper_Space0
 70
     0
 10
0.0
 20
0.0
 30
0.0
  3
*Paper_Space0
  1

  0
ENDBLK
  5
58
330
55
100
AcDbEntity
  8
0
100
AcDbBlockEnd
  0
BLOCK
  5
E0
330
D6
100
AcDbEntity
  8
0
100
AcDbBlockBegin
  2
*D1
 70
     1
 10
0.0
 20
0.0
 30
0.0
  3
*D1
  1

  0
LINE
  5
E3
330
D6
100
AcDbEntity
  8
0
 62
     0
370
    -2
100
AcDbLine
 10
708.5583597488075
 20
1080.86885918026
 30
0.0
 11
708.5583597488075
 21
1106.102783850209
 31
0.0
  0
LINE
  5
E4
330
D6
100
AcDbEntity
  8
0
 62
     0
370
    -2
100
AcDbLine
 10
908.5583597488076
 20
1080.86885918026
 30
0.0
 11
908.5583597488076
 21
1106.102783850209
 31
0.0
  0
LINE
  5
E5
330
D6
100
AcDbEntity
  8
0
 62
     0
370
    -2
100
AcDbLine
 10
711.0583597488076
 20
1104.852783850209
 30
0.0
 11
906.0583597488076
 21
1104.852783850209
 31
0.0
  0
SOLID
  5
E6
330
D6
100
AcDbEntity
  8
0
 62
     0
100
AcDbTrace
 10
711.0583597488076
 20
1105.269450516876
 30
0.0
 11
711.0583597488076
 21
1104.436117183542
 31
0.0
 12
708.5583597488075
 22
1104.852783850209
 32
0.0
 13
708.5583597488075
 23
1104.852783850209
 33
0.0
  0
SOLID
  5
E7
330
D6
100
AcDbEntity
  8
0
 62
     0
100
AcDbTrace
 10
906.0583597488076
 20
1105.269450516876
 30
0.0
 11
906.0583597488076
 21
1104.436117183542
 31
0.0
 12
908.5583597488076
 22
1104.852783850209
 32
0.0
 13
908.5583597488076
 23
1104.852783850209
 33
0.0
  0
MTEXT
  5
E8
330
D6
100
AcDbEntity
  8
0
 62
     0
100
AcDbMText
 10
808.5583597488076
 20
1106.727783850209
 30
0.0
 40
2.5
 41
0.0
 71
     5
 72
     1
  1
200
 73
     1
 44
1.0
  0
POINT
  5
E9
330
D6
100
AcDbEntity
  8
Defpoints
 62
     0
100
AcDbPoint
 10
708.5583597488075
 20
1080.243859180261
 30
0.0
  0
POINT
  5
EA
330
D6
100
AcDbEntity
  8
Defpoints
 62
     0
100
AcDbPoint
 10
908.5583597488076
 20
1080.243859180261
 30
0.0
  0
POINT
  5
EB
330
D6
100
AcDbEntity
  8
Defpoints
 62
     0
100
AcDbPoint
 10
908.5583597488076
 20
1104.852783850209
 30
0.0
  0
ENDBLK
  5
E1
330
D6
100
AcDbEntity
  8
0
100
AcDbBlockEnd
  0
BLOCK
  5
F8
330
EE
100
AcDbEntity
  8
0
100
AcDbBlockBegin
  2
*D2
 70
     1
 10
0.0
 20
0.0
 30
0.0
  3
*D2
  1

  0
LINE
  5
FB
330
EE
100
AcDbEntity
  8
0
 62
     0
370
    -2
100
AcDbLine
 10
909.1833597488076
 20
1080.243859180261
 30
0.0
 11
939.5347607107114
 21
1080.243859180261
 31
0.0
  0
LINE
  5
FC
330
EE
100
AcDbEntity
  8
0
 62
     0
370
    -2
100
AcDbLine
 10
909.1833597488076
 20
815.2438591802606
 30
0.0
 11
939.5347607107114
 21
815.2438591802606
 31
0.0
  0
LINE
  5
FD
330
EE
100
AcDbEntity
  8
0
 62
     0
370
    -2
100
AcDbLine
 10
938.2847607107114
 20
1077.743859180261
 30
0.0
 11
938.2847607107114
 21
817.7438591802607
 31
0.0
  0
SOLID
  5
FE
330
EE
100
AcDbEntity
  8
0
 62
     0
100
AcDbTrace
 10
937.8680940440448
 20
1077.743859180261
 30
0.0
 11
938.7014273773781
 21
1077.743859180261
 31
0.0
 12
938.2847607107114
 22
1080.243859180261
 32
0.0
 13
938.2847607107114
 23
1080.243859180261
 33
0.0
  0
SOLID
  5
FF
330
EE
100
AcDbEntity
  8
0
 62
     0
100
AcDbTrace
 10
937.8680940440448
 20
817.7438591802607
 30
0.0
 11
938.7014273773781
 21
817.7438591802607
 31
0.0
 12
938.2847607107114
 22
815.2438591802606
 32
0.0
 13
938.2847607107114
 23
815.2438591802606
 33
0.0
  0
MTEXT
  5
100
330
EE
100
AcDbEntity
  8
0
 62
     0
100
AcDbMText
 10
936.4097607107114
 20
947.7438591802608
 30
0.0
 40
2.5
 41
0.0
 71
     5
 72
     1
  1
265
 11
0.0000000000000001
 21
1.0
 31
0.0
 73
     1
 44
1.0
  0
POINT
  5
101
330
EE
100
AcDbEntity
  8
Defpoints
 62
     0
100
AcDbPoint
 10
908.5583597488076
 20
1080.243859180261
 30
0.0
  0
POINT
  5
102
330
EE
100
AcDbEntity
  8
Defpoints
 62
     0
100
AcDbPoint
 10
908.5583597488076
 20
815.2438591802606
 30
0.0
  0
POINT
  5
103
330
EE
100
AcDbEntity
  8
Defpoints
 62
     0
100
AcDbPoint
 10
938.2847607107114
 20
815.2438591802606
 30
0.0
  0
ENDBLK
  5
F9
330
EE
100
AcDbEntity
  8
0
100
AcDbBlockEnd
  0
BLOCK
  5
110
330
106
100
AcDbEntity
  8
0
100
AcDbBlockBegin
  2
*D3
 70
     1
 10
0.0
 20
0.0
 30
0.0
  3
*D3
  1

  0
LINE
  5
113
330
106
100
AcDbEntity
  8
0
 62
     0
370
    -2
100
AcDbLine
 10
728.5583597488075
 20
1059.61885918026
 30
0.0
 11
728.5583597488075
 21
1016.337711638699
 31
0.0
  0
LINE
  5
114
330
106
100
AcDbEntity
  8
0
 62
     0
370
    -2
100
AcDbLine
 10
888.5583597488077
 20
1059.61885918026
 30
0.0
 11
888.5583597488077
 21
1016.337711638699
 31
0.0
  0
LINE
  5
115
330
106
100
AcDbEntity
  8
0
 62
     0
370
    -2
100
AcDbLine
 10
731.0583597488076
 20
1017.587711638699
 30
0.0
 11
886.0583597488076
 21
1017.587711638699
 31
0.0
  0
SOLID
  5
116
330
106
100
AcDbEntity
  8
0
 62
     0
100
AcDbTrace
 10
731.0583597488076
 20
1018.004378305366
 30
0.0
 11
731.0583597488076
 21
1017.171044972032
 31
0.0
 12
728.5583597488075
 22
1017.587711638699
 32
0.0
 13
728.5583597488075
 23
1017.587711638699
 33
0.0
  0
SOLID
  5
117
330
106
100
AcDbEntity
  8
0
 62
     0
100
AcDbTrace
 10
886.0583597488076
 20
1018.004378305366
 30
0.0
 11
886.0583597488076
 21
1017.171044972032
 31
0.0
 12
888.5583597488077
 22
1017.587711638699
 32
0.0
 13
888.5583597488077
 23
1017.587711638699
 33
0.0
  0
MTEXT
  5
118
330
106
100
AcDbEntity
  8
0
 62
     0
100
AcDbMText
 10
808.5583597488076
 20
1019.462711638699
 30
0.0
 40
2.5
 41
0.0
 71
     5
 72
     1
  1
160
 73
     1
 44
1.0
  0
POINT
  5
119
330
106
100
AcDbEntity
  8
Defpoints
 62
     0
100
AcDbPoint
 10
728.5583597488075
 20
1060.24385918026
 30
0.0
  0
POINT
  5
11A
330
106
100
AcDbEntity
  8
Defpoints
 62
     0
100
AcDbPoint
 10
888.5583597488077
 20
1060.24385918026
 30
0.0
  0
POINT
  5
11B
330
106
100
AcDbEntity
  8
Defpoints
 62
     0
100
AcDbPoint
 10
888.5583597488077
 20
1017.587711638699
 30
0.0
  0
ENDBLK
  5
111
330
106
100
AcDbEntity
  8
0
100
AcDbBlockEnd
  0
BLOCK
  5
128
330
11E
100
AcDbEntity
  8
0
100
AcDbBlockBegin
  2
*D4
 70
     1
 10
0.0
 20
0.0
 30
0.0
  3
*D4
  1

  0
LINE
  5
11F
330
11E
100
AcDbEntity
  8
0
 62
     0
370
    -2
100
AcDbLine
 10
727.9333597488076
 20
1059.61885918026
 30
0.0
 11
663.1917861664087
 21
1059.61885918026
 31
0.0
  0
LINE
  5
120
330
11E
100
AcDbEntity
  8
0
 62
     0
370
    -2
100
AcDbLine
 10
727.9333597488076
 20
835.2438591802606
 30
0.0
 11
663.1917861664087
 21
835.2438591802606
 31
0.0
  0
LINE
  5
121
330
11E
100
AcDbEntity
  8
0
 62
     0
370
    -2
100
AcDbLine
 10
664.4417861664087
 20
1057.11885918026
 30
0.0
 11
664.4417861664087
 21
837.7438591802606
 31
0.0
  0
SOLID
  5
122
330
11E
100
AcDbEntity
  8
0
 62
     0
100
AcDbTrace
 10
664.0251194997421
 20
1057.11885918026
 30
0.0
 11
664.8584528330753
 21
1057.11885918026
 31
0.0
 12
664.4417861664087
 22
1059.61885918026
 32
0.0
 13
664.4417861664087
 23
1059.61885918026
 33
0.0
  0
SOLID
  5
123
330
11E
100
AcDbEntity
  8
0
 62
     0
100
AcDbTrace
 10
664.0251194997421
 20
837.7438591802606
 30
0.0
 11
664.8584528330753
 21
837.7438591802606
 31
0.0
 12
664.4417861664087
 22
835.2438591802606
 32
0.0
 13
664.4417861664087
 23
835.2438591802606
 33
0.0
  0
MTEXT
  5
124
330
11E
100
AcDbEntity
  8
0
 62
     0
100
AcDbMText
 10
662.3584528330752
 20
947.4313591802609
 30
0.0
 40
2.5
 41
0.0
 71
     5
 72
     1
  1
224,38
 11
0.0000000000000001
 21
1.0
 31
0.0
 73
     1
 44
1.0
  0
POINT
  5
125
330
11E
100
AcDbEntity
  8
Defpoints
 62
     0
100
AcDbPoint
 10
728.5583597488075
 20
1059.61885918026
 30
0.0
  0
POINT
  5
126
330
11E
100
AcDbEntity
  8
Defpoints
 62
     0
100
AcDbPoint
 10
728.5583597488075
 20
835.2438591802606
 30
0.0
  0
POINT
  5
127
330
11E
100
AcDbEntity
  8
Defpoints
 62
     0
100
AcDbPoint
 10
664.4417861664087
 20
835.2438591802606
 30
0.0
  0
ENDBLK
  5
129
330
11E
100
AcDbEntity
  8
0
100
AcDbBlockEnd
  0
BLOCK
  5
135
330
12B
100
AcDbEntity
  8
0
100
AcDbBlockBegin
  2
*D5
 70
     1
 10
0.0
 20
0.0
 30
0.0
  3
*D5
  1

  0
LINE
  5
138
330
12B
100
AcDbEntity
  8
0
 62
     0
370
    -2
100
AcDbLine
 10
715.9333597488076
 20
1040.24385918026
 30
0.0
 11
684.1514833429609
 21
1040.24385918026
 31
0.0
  0
LINE
  5
139
330
12B
100
AcDbEntity
  8
0
 62
     0
370
    -2
100
AcDbLine
 10
715.9333597488076
 20
1080.243859180261
 30
0.0
 11
684.1514833429609
 21
1080.243859180261
 31
0.0
  0
LINE
  5
13A
330
12B
100
AcDbEntity
  8
0
 62
     0
370
    -2
100
AcDbLine
 10
685.401483342961
 20
1042.74385918026
 30
0.0
 11
685.401483342961
 21
1077.743859180261
 31
0.0
  0
SOLID
  5
13B
330
12B
100
AcDbEntity
  8
0
 62
     0
100
AcDbTrace
 10
684.9848166762943
 20
1042.74385918026
 30
0.0
 11
685.8181500096276
 21
1042.74385918026
 31
0.0
 12
685.401483342961
 22
1040.24385918026
 32
0.0
 13
685.401483342961
 23
1040.24385918026
 33
0.0
  0
SOLID
  5
13C
330
12B
100
AcDbEntity
  8
0
 62
     0
100
AcDbTrace
 10
684.9848166762943
 20
1077.743859180261
 30
0.0
 11
685.8181500096276
 21
1077.743859180261
 31
0.0
 12
685.401483342961
 22
1080.243859180261
 32
0.0
 13
685.401483342961
 23
1080.243859180261
 33
0.0
  0
MTEXT
  5
13D
330
12B
100
AcDbEntity
  8
0
 62
     0
100
AcDbMText
 10
683.5264833429609
 20
1060.24385918026
 30
0.0
 40
2.5
 41
0.0
 71
     5
 72
     1
  1
40
 11
0.0000000000000001
 21
1.0
 31
0.0
 73
     1
 44
1.0
  0
POINT
  5
13E
330
12B
100
AcDbEntity
  8
Defpoints
 62
     0
100
AcDbPoint
 10
716.5583597488075
 20
1040.24385918026
 30
0.0
  0
POINT
  5
13F
330
12B
100
AcDbEntity
  8
Defpoints
 62
     0
100
AcDbPoint
 10
716.5583597488075
 20
1080.243859180261
 30
0.0
  0
POINT
  5
140
330
12B
100
AcDbEntity
  8
Defpoints
 62
     0
100
AcDbPoint
 10
685.401483342961
 20
1080.243859180261
 30
0.0
  0
ENDBLK
  5
136
330
12B
100
AcDbEntity
  8
0
100
AcDbBlockEnd
  0
BLOCK
  5
14D
330
143
100
AcDbEntity
  8
0
100
AcDbBlockBegin
  2
*D6
 70
     1
 10
0.0
 20
0.0
 30
0.0
  3
*D6
  1

  0
LINE
  5
150
330
143
100
AcDbEntity
  8
0
 62
     0
370
    -2
100
AcDbLine
 10
715.9333597488074
 20
855.2438591802607
 30
0.0
 11
684.1514833429609
 21
855.2438591802607
 31
0.0
  0
LINE
  5
151
330
143
100
AcDbEntity
  8
0
 62
     0
370
    -2
100
AcDbLine
 10
715.9333597488074
 20
815.2438591802606
 30
0.0
 11
684.1514833429609
 21
815.2438591802606
 31
0.0
  0
LINE
  5
152
330
143
100
AcDbEntity
  8
0
 62
     0
370
    -2
100
AcDbLine
 10
685.401483342961
 20
852.7438591802606
 30
0.0
 11
685.401483342961
 21
817.7438591802607
 31
0.0
  0
SOLID
  5
153
330
143
100
AcDbEntity
  8
0
 62
     0
100
AcDbTrace
 10
684.9848166762943
 20
852.7438591802606
 30
0.0
 11
685.8181500096276
 21
852.7438591802606
 31
0.0
 12
685.401483342961
 22
855.2438591802607
 32
0.0
 13
685.401483342961
 23
855.2438591802607
 33
0.0
  0
SOLID
  5
154
330
143
100
AcDbEntity
  8
0
 62
     0
100
AcDbTrace
 10
684.9848166762943
 20
817.7438591802607
 30
0.0
 11
685.8181500096276
 21
817.7438591802607
 31
0.0
 12
685.401483342961
 22
815.2438591802606
 32
0.0
 13
685.401483342961
 23
815.2438591802606
 33
0.0
  0
MTEXT
  5
155
330
143
100
AcDbEntity
  8
0
 62
     0
100
AcDbMText
 10
683.5264833429607
 20
835.2438591802608
 30
0.0
 40
2.5
 41
0.0
 71
     5
 72
     1
  1
40
 11
0.0000000000000001
 21
1.0
 31
0.0
 73
     1
 44
1.0
  0
POINT
  5
156
330
143
100
AcDbEntity
  8
Defpoints
 62
     0
100
AcDbPoint
 10
716.5583597488074
 20
855.2438591802607
 30
0.0
  0
POINT
  5
157
330
143
100
AcDbEntity
  8
Defpoints
 62
     0
100
AcDbPoint
 10
716.5583597488074
 20
815.2438591802606
 30
0.0
  0
POINT
  5
158
330
143
100
AcDbEntity
  8
Defpoints
 62
     0
100
AcDbPoint
 10
685.401483342961
 20
815.2438591802606
 30
0.0
  0
ENDBLK
  5
14E
330
143
100
AcDbEntity
  8
0
100
AcDbBlockEnd
  0
BLOCK
  5
165
330
15B
100
AcDbEntity
  8
0
100
AcDbBlockBegin
  2
*D7
 70
     1
 10
0.0
 20
0.0
 30
0.0
  3
*D7
  1

  0
LINE
  5
168
330
15B
100
AcDbEntity
  8
0
 62
     0
370
    -2
100
AcDbLine
 10
868.5583597488076
 20
1072.86885918026
 30
0.0
 11
868.5583597488076
 21
1123.130269479517
 31
0.0
  0
LINE
  5
169
330
15B
100
AcDbEntity
  8
0
 62
     0
370
    -2
100
AcDbLine
 10
908.5583597488076
 20
1072.86885918026
 30
0.0
 11
908.5583597488076
 21
1123.130269479517
 31
0.0
  0
LINE
  5
16A
330
15B
100
AcDbEntity
  8
0
 62
     0
370
    -2
100
AcDbLine
 10
871.0583597488076
 20
1121.880269479517
 30
0.0
 11
906.0583597488076
 21
1121.880269479517
 31
0.0
  0
SOLID
  5
16B
330
15B
100
AcDbEntity
  8
0
 62
     0
100
AcDbTrace
 10
871.0583597488076
 20
1122.296936146184
 30
0.0
 11
871.0583597488076
 21
1121.46360281285
 31
0.0
 12
868.5583597488076
 22
1121.880269479517
 32
0.0
 13
868.5583597488076
 23
1121.880269479517
 33
0.0
  0
SOLID
  5
16C
330
15B
100
AcDbEntity
  8
0
 62
     0
100
AcDbTrace
 10
906.0583597488076
 20
1122.296936146184
 30
0.0
 11
906.0583597488076
 21
1121.46360281285
 31
0.0
 12
908.5583597488076
 22
1121.880269479517
 32
0.0
 13
908.5583597488076
 23
1121.880269479517
 33
0.0
  0
MTEXT
  5
16D
330
15B
100
AcDbEntity
  8
0
 62
     0
100
AcDbMText
 10
888.5583597488075
 20
1123.755269479517
 30
0.0
 40
2.5
 41
0.0
 71
     5
 72
     1
  1
40
 73
     1
 44
1.0
  0
POINT
  5
16E
330
15B
100
AcDbEntity
  8
Defpoints
 62
     0
100
AcDbPoint
 10
868.5583597488076
 20
1072.24385918026
 30
0.0
  0
POINT
  5
16F
330
15B
100
AcDbEntity
  8
Defpoints
 62
     0
100
AcDbPoint
 10
908.5583597488076
 20
1072.24385918026
 30
0.0
  0
POINT
  5
170
330
15B
100
AcDbEntity
  8
Defpoints
 62
     0
100
AcDbPoint
 10
908.5583597488076
 20
1121.880269479517
 30
0.0
  0
ENDBLK
  5
166
330
15B
100
AcDbEntity
  8
0
100
AcDbBlockEnd
  0
BLOCK
  5
1FE
330
1F4
100
AcDbEntity
  8
0
100
AcDbBlockBegin
  2
*D8
 70
     1
 10
0.0
 20
0.0
 30
0.0
  3
*D8
  1

  0
LINE
  5
201
330
1F4
100
AcDbEntity
  8
0
 62
     0
370
    -2
100
AcDbLine
 10
689.5039176285263
 20
1331.638360728284
 30
0.0
 11
689.5039176285263
 21
1358.164548938353
 31
0.0
  0
LINE
  5
202
330
1F4
100
AcDbEntity
  8
0
 62
     0
370
    -2
100
AcDbLine
 10
890.5039176285264
 20
1331.638360728284
 30
0.0
 11
890.5039176285264
 21
1358.164548938353
 31
0.0
  0
LINE
  5
203
330
1F4
100
AcDbEntity
  8
0
 62
     0
370
    -2
100
AcDbLine
 10
692.0039176285263
 20
1356.914548938353
 30
0.0
 11
888.0039176285263
 21
1356.914548938353
 31
0.0
  0
SOLID
  5
204
330
1F4
100
AcDbEntity
  8
0
 62
     0
100
AcDbTrace
 10
692.0039176285263
 20
1357.331215605019
 30
0.0
 11
692.0039176285263
 21
1356.497882271686
 31
0.0
 12
689.5039176285263
 22
1356.914548938353
 32
0.0
 13
689.5039176285263
 23
1356.914548938353
 33
0.0
  0
SOLID
  5
205
330
1F4
100
AcDbEntity
  8
0
 62
     0
100
AcDbTrace
 10
888.0039176285263
 20
1357.331215605019
 30
0.0
 11
888.0039176285263
 21
1356.497882271686
 31
0.0
 12
890.5039176285264
 22
1356.914548938353
 32
0.0
 13
890.5039176285264
 23
1356.914548938353
 33
0.0
  0
MTEXT
  5
206
330
1F4
100
AcDbEntity
  8
0
 62
     0
100
AcDbMText
 10
790.0039176285263
 20
1358.789548938353
 30
0.0
 40
2.5
 41
0.0
 71
     5
 72
     1
  1
201
 73
     1
 44
1.0
  0
POINT
  5
207
330
1F4
100
AcDbEntity
  8
Defpoints
 62
     0
100
AcDbPoint
 10
689.5039176285263
 20
1331.013360728284
 30
0.0
  0
POINT
  5
208
330
1F4
100
AcDbEntity
  8
Defpoints
 62
     0
100
AcDbPoint
 10
890.5039176285264
 20
1331.013360728284
 30
0.0
  0
POINT
  5
209
330
1F4
100
AcDbEntity
  8
Defpoints
 62
     0
100
AcDbPoint
 10
890.5039176285264
 20
1356.914548938353
 30
0.0
  0
ENDBLK
  5
1FF
330
1F4
100
AcDbEntity
  8
0
100
AcDbBlockEnd
  0
BLOCK
  5
216
330
20C
100
AcDbEntity
  8
0
100
AcDbBlockBegin
  2
*D9
 70
     1
 10
0.0
 20
0.0
 30
0.0
  3
*D9
  1

  0
LINE
  5
219
330
20C
100
AcDbEntity
  8
0
 62
     0
370
    -2
100
AcDbLine
 10
688.8789176285263
 20
1331.013360728284
 30
0.0
 11
618.9808443608845
 21
1331.013360728284
 31
0.0
  0
LINE
  5
21A
330
20C
100
AcDbEntity
  8
0
 62
     0
370
    -2
100
AcDbLine
 10
688.8789176285263
 20
1065.013360728284
 30
0.0
 11
618.9808443608844
 21
1065.013360728284
 31
0.0
  0
LINE
  5
21B
330
20C
100
AcDbEntity
  8
0
 62
     0
370
    -2
100
AcDbLine
 10
620.2308443608846
 20
1328.513360728283
 30
0.0
 11
620.2308443608845
 21
1067.513360728284
 31
0.0
  0
SOLID
  5
21C
330
20C
100
AcDbEntity
  8
0
 62
     0
100
AcDbTrace
 10
619.8141776942179
 20
1328.513360728283
 30
0.0
 11
620.6475110275512
 21
1328.513360728283
 31
0.0
 12
620.2308443608846
 22
1331.013360728284
 32
0.0
 13
620.2308443608846
 23
1331.013360728284
 33
0.0
  0
SOLID
  5
21D
330
20C
100
AcDbEntity
  8
0
 62
     0
100
AcDbTrace
 10
619.8141776942178
 20
1067.513360728284
 30
0.0
 11
620.6475110275511
 21
1067.513360728284
 31
0.0
 12
620.2308443608845
 22
1065.013360728284
 32
0.0
 13
620.2308443608845
 23
1065.013360728284
 33
0.0
  0
MTEXT
  5
21E
330
20C
100
AcDbEntity
  8
0
 62
     0
100
AcDbMText
 10
618.3558443608843
 20
1198.013360728284
 30
0.0
 40
2.5
 41
0.0
 71
     5
 72
     1
  1
266
 11
0.0000000000000001
 21
1.0
 31
0.0
 73
     1
 44
1.0
  0
POINT
  5
21F
330
20C
100
AcDbEntity
  8
Defpoints
 62
     0
100
AcDbPoint
 10
689.5039176285263
 20
1331.013360728284
 30
0.0
  0
POINT
  5
220
330
20C
100
AcDbEntity
  8
Defpoints
 62
     0
100
AcDbPoint
 10
689.5039176285263
 20
1065.013360728284
 30
0.0
  0
POINT
  5
221
330
20C
100
AcDbEntity
  8
Defpoints
 62
     0
100
AcDbPoint
 10
620.2308443608845
 20
1065.013360728284
 30
0.0
  0
ENDBLK
  5
217
330
20C
100
AcDbEntity
  8
0
100
AcDbBlockEnd
  0
BLOCK
  5
22E
330
224
100
AcDbEntity
  8
0
100
AcDbBlockBegin
  2
*D10
 70
     1
 10
0.0
 20
0.0
 30
0.0
  3
*D10
  1

  0
LINE
  5
231
330
224
100
AcDbEntity
  8
0
 62
     0
370
    -2
100
AcDbLine
 10
705.5039176285263
 20
1314.388360728284
 30
0.0
 11
705.5039176285263
 21
1269.701916319862
 31
0.0
  0
LINE
  5
232
330
224
100
AcDbEntity
  8
0
 62
     0
370
    -2
100
AcDbLine
 10
874.5039176285262
 20
1314.388360728283
 30
0.0
 11
874.5039176285262
 21
1269.701916319862
 31
0.0
  0
LINE
  5
233
330
224
100
AcDbEntity
  8
0
 62
     0
370
    -2
100
AcDbLine
 10
708.0039176285263
 20
1270.951916319862
 30
0.0
 11
872.0039176285261
 21
1270.951916319862
 31
0.0
  0
SOLID
  5
234
330
224
100
AcDbEntity
  8
0
 62
     0
100
AcDbTrace
 10
708.0039176285263
 20
1271.368582986529
 30
0.0
 11
708.0039176285263
 21
1270.535249653195
 31
0.0
 12
705.5039176285263
 22
1270.951916319862
 32
0.0
 13
705.5039176285263
 23
1270.951916319862
 33
0.0
  0
SOLID
  5
235
330
224
100
AcDbEntity
  8
0
 62
     0
100
AcDbTrace
 10
872.0039176285261
 20
1271.368582986529
 30
0.0
 11
872.0039176285261
 21
1270.535249653195
 31
0.0
 12
874.5039176285262
 22
1270.951916319862
 32
0.0
 13
874.5039176285262
 23
1270.951916319862
 33
0.0
  0
MTEXT
  5
236
330
224
100
AcDbEntity
  8
0
 62
     0
100
AcDbMText
 10
790.0039176285263
 20
1272.826916319862
 30
0.0
 40
2.5
 41
0.0
 71
     5
 72
     1
  1
169
 73
     1
 44
1.0
  0
POINT
  5
237
330
224
100
AcDbEntity
  8
Defpoints
 62
     0
100
AcDbPoint
 10
705.5039176285263
 20
1315.013360728284
 30
0.0
  0
POINT
  5
238
330
224
100
AcDbEntity
  8
Defpoints
 62
     0
100
AcDbPoint
 10
874.5039176285262
 20
1315.013360728283
 30
0.0
  0
POINT
  5
239
330
224
100
AcDbEntity
  8
Defpoints
 62
     0
100
AcDbPoint
 10
874.5039176285262
 20
1270.951916319862
 30
0.0
  0
ENDBLK
  5
22F
330
224
100
AcDbEntity
  8
0
100
AcDbBlockEnd
  0
BLOCK
  5
246
330
23C
100
AcDbEntity
  8
0
100
AcDbBlockBegin
  2
*D11
 70
     1
 10
0.0
 20
0.0
 30
0.0
  3
*D11
  1

  0
LINE
  5
249
330
23C
100
AcDbEntity
  8
0
 62
     0
370
    -2
100
AcDbLine
 10
875.1289176285261
 20
1314.388360728283
 30
0.0
 11
936.8291019206354
 21
1314.388360728283
 31
0.0
  0
LINE
  5
24A
330
23C
100
AcDbEntity
  8
0
 62
     0
370
    -2
100
AcDbLine
 10
875.1289176285261
 20
1081.013360728284
 30
0.0
 11
936.8291019206353
 21
1081.013360728284
 31
0.0
  0
LINE
  5
24B
330
23C
100
AcDbEntity
  8
0
 62
     0
370
    -2
100
AcDbLine
 10
935.5791019206355
 20
1311.888360728283
 30
0.0
 11
935.5791019206353
 21
1083.513360728284
 31
0.0
  0
SOLID
  5
24C
330
23C
100
AcDbEntity
  8
0
 62
     0
100
AcDbTrace
 10
935.1624352539689
 20
1311.888360728283
 30
0.0
 11
935.9957685873022
 21
1311.888360728283
 31
0.0
 12
935.5791019206355
 22
1314.388360728283
 32
0.0
 13
935.5791019206355
 23
1314.388360728283
 33
0.0
  0
SOLID
  5
24D
330
23C
100
AcDbEntity
  8
0
 62
     0
100
AcDbTrace
 10
935.1624352539687
 20
1083.513360728284
 30
0.0
 11
935.995768587302
 21
1083.513360728284
 31
0.0
 12
935.5791019206353
 22
1081.013360728284
 32
0.0
 13
935.5791019206353
 23
1081.013360728284
 33
0.0
  0
MTEXT
  5
24E
330
23C
100
AcDbEntity
  8
0
 62
     0
100
AcDbMText
 10
933.4957685873019
 20
1197.700860728283
 30
0.0
 40
2.5
 41
0.0
 71
     5
 72
     1
  1
233,37
 11
0.0000000000000001
 21
1.0
 31
0.0
 73
     1
 44
1.0
  0
POINT
  5
24F
330
23C
100
AcDbEntity
  8
Defpoints
 62
     0
100
AcDbPoint
 10
874.5039176285262
 20
1314.388360728283
 30
0.0
  0
POINT
  5
250
330
23C
100
AcDbEntity
  8
Defpoints
 62
     0
100
AcDbPoint
 10
874.5039176285262
 20
1081.013360728284
 30
0.0
  0
POINT
  5
251
330
23C
100
AcDbEntity
  8
Defpoints
 62
     0
100
AcDbPoint
 10
935.5791019206353
 20
1081.013360728284
 30
0.0
  0
ENDBLK
  5
247
330
23C
100
AcDbEntity
  8
0
100
AcDbBlockEnd
  0
BLOCK
  5
25E
330
254
100
AcDbEntity
  8
0
100
AcDbBlockBegin
  2
*D12
 70
     1
 10
0.0
 20
0.0
 30
0.0
  3
*D12
  1

  0
LINE
  5
261
330
254
100
AcDbEntity
  8
0
 62
     0
370
    -2
100
AcDbLine
 10
875.1289176285263
 20
1315.013360728284
 30
0.0
 11
945.4818643021891
 21
1315.013360728284
 31
0.0
  0
LINE
  5
262
330
254
100
AcDbEntity
  8
0
 62
     0
370
    -2
100
AcDbLine
 10
875.1289176285261
 20
1081.013360728284
 30
0.0
 11
945.4818643021891
 21
1081.013360728284
 31
0.0
  0
LINE
  5
263
330
254
100
AcDbEntity
  8
0
 62
     0
370
    -2
100
AcDbLine
 10
944.2318643021891
 20
1312.513360728283
 30
0.0
 11
944.231864302189
 21
1083.513360728284
 31
0.0
  0
SOLID
  5
264
330
254
100
AcDbEntity
  8
0
 62
     0
100
AcDbTrace
 10
943.8151976355225
 20
1312.513360728283
 30
0.0
 11
944.6485309688558
 21
1312.513360728283
 31
0.0
 12
944.2318643021891
 22
1315.013360728284
 32
0.0
 13
944.2318643021891
 23
1315.013360728284
 33
0.0
  0
SOLID
  5
265
330
254
100
AcDbEntity
  8
0
 62
     0
100
AcDbTrace
 10
943.8151976355223
 20
1083.513360728284
 30
0.0
 11
944.6485309688556
 21
1083.513360728284
 31
0.0
 12
944.231864302189
 22
1081.013360728284
 32
0.0
 13
944.231864302189
 23
1081.013360728284
 33
0.0
  0
MTEXT
  5
266
330
254
100
AcDbEntity
  8
0
 62
     0
100
AcDbMText
 10
942.3568643021889
 20
1198.013360728284
 30
0.0
 40
2.5
 41
0.0
 71
     5
 72
     1
  1
234
 11
0.0000000000000001
 21
1.0
 31
0.0
 73
     1
 44
1.0
  0
POINT
  5
267
330
254
100
AcDbEntity
  8
Defpoints
 62
     0
100
AcDbPoint
 10
874.5039176285263
 20
1315.013360728284
 30
0.0
  0
POINT
  5
268
330
254
100
AcDbEntity
  8
Defpoints
 62
     0
100
AcDbPoint
 10
874.5039176285262
 20
1081.013360728284
 30
0.0
  0
POINT
  5
269
330
254
100
AcDbEntity
  8
Defpoints
 62
     0
100
AcDbPoint
 10
944.231864302189
 20
1081.013360728284
 30
0.0
  0
ENDBLK
  5
25F
330
254
100
AcDbEntity
  8
0
100
AcDbBlockEnd
  0
BLOCK
  5
276
330
26C
100
AcDbEntity
  8
0
100
AcDbBlockBegin
  2
*D13
 70
     1
 10
0.0
 20
0.0
 30
0.0
  3
*D13
  1

  0
LINE
  5
279
330
26C
100
AcDbEntity
  8
0
 62
     0
370
    -2
100
AcDbLine
 10
995.4779326818917
 20
1394.805028474303
 30
0.0
 11
995.4779326818917
 21
1411.055142592736
 31
0.0
  0
LINE
  5
27A
330
26C
100
AcDbEntity
  8
0
 62
     0
370
    -2
100
AcDbLine
 10
1020.477932681891
 20
1393.783561706261
 30
0.0
 11
1020.477932681891
 21
1411.055142592736
 31
0.0
  0
LINE
  5
27B
330
26C
100
AcDbEntity
  8
0
 62
     0
370
    -2
100
AcDbLine
 10
997.9779326818915
 20
1409.805142592736
 30
0.0
 11
1017.977932681891
 21
1409.805142592736
 31
0.0
  0
SOLID
  5
27C
330
26C
100
AcDbEntity
  8
0
 62
     0
100
AcDbTrace
 10
997.9779326818915
 20
1410.221809259403
 30
0.0
 11
997.9779326818915
 21
1409.388475926069
 31
0.0
 12
995.4779326818917
 22
1409.805142592736
 32
0.0
 13
995.4779326818917
 23
1409.805142592736
 33
0.0
  0
SOLID
  5
27D
330
26C
100
AcDbEntity
  8
0
 62
     0
100
AcDbTrace
 10
1017.977932681891
 20
1410.221809259403
 30
0.0
 11
1017.977932681891
 21
1409.388475926069
 31
0.0
 12
1020.477932681891
 22
1409.805142592736
 32
0.0
 13
1020.477932681891
 23
1409.805142592736
 33
0.0
  0
MTEXT
  5
27E
330
26C
100
AcDbEntity
  8
0
 62
     0
100
AcDbMText
 10
1007.977932681891
 20
1411.680142592736
 30
0.0
 40
2.5
 41
0.0
 71
     5
 72
     1
  1
25
 73
     1
 44
1.0
  0
POINT
  5
27F
330
26C
100
AcDbEntity
  8
Defpoints
 62
     0
100
AcDbPoint
 10
995.4779326818917
 20
1394.180028474303
 30
0.0
  0
POINT
  5
280
330
26C
100
AcDbEntity
  8
Defpoints
 62
     0
100
AcDbPoint
 10
1020.477932681891
 20
1393.158561706261
 30
0.0
  0
POINT
  5
281
330
26C
100
AcDbEntity
  8
Defpoints
 62
     0
100
AcDbPoint
 10
1020.477932681891
 20
1409.805142592736
 30
0.0
  0
ENDBLK
  5
277
330
26C
100
AcDbEntity
  8
0
100
AcDbBlockEnd
  0
BLOCK
  5
291
330
285
100
AcDbEntity
  8
0
100
AcDbBlockBegin
  2
*D14
 70
     1
 10
0.0
 20
0.0
 30
0.0
  3
*D14
  1

  0
LINE
  5
294
330
285
100
AcDbEntity
  8
0
 62
     0
370
    -2
100
AcDbLine
 10
1020.477932681891
 20
1330.388360728284
 30
0.0
 11
1020.477932681891
 21
1271.796136460803
 31
0.0
  0
LINE
  5
295
330
285
100
AcDbEntity
  8
0
 62
     0
370
    -2
100
AcDbLine
 10
1016.477932681891
 20
1314.388360728284
 30
0.0
 11
1016.477932681891
 21
1271.796136460803
 31
0.0
  0
LINE
  5
296
330
285
100
AcDbEntity
  8
0
 62
     0
370
    -2
100
AcDbLine
 10
1022.977932681891
 20
1273.046136460803
 30
0.0
 11
1025.477932681891
 21
1273.046136460803
 31
0.0
  0
LINE
  5
297
330
285
100
AcDbEntity
  8
0
 62
     0
370
    -2
100
AcDbLine
 10
1013.977932681891
 20
1273.046136460803
 30
0.0
 11
1011.477932681891
 21
1273.046136460803
 31
0.0
  0
LINE
  5
298
330
285
100
AcDbEntity
  8
0
 62
     0
370
    -2
100
AcDbLine
 10
1020.477932681891
 20
1273.046136460803
 30
0.0
 11
1016.477932681891
 21
1273.046136460803
 31
0.0
  0
SOLID
  5
299
330
285
100
AcDbEntity
  8
0
 62
     0
100
AcDbTrace
 10
1022.977932681891
 20
1273.46280312747
 30
0.0
 11
1022.977932681891
 21
1272.629469794136
 31
0.0
 12
1020.477932681891
 22
1273.046136460803
 32
0.0
 13
1020.477932681891
 23
1273.046136460803
 33
0.0
  0
SOLID
  5
29A
330
285
100
AcDbEntity
  8
0
 62
     0
100
AcDbTrace
 10
1013.977932681891
 20
1273.46280312747
 30
0.0
 11
1013.977932681891
 21
1272.629469794136
 31
0.0
 12
1016.477932681891
 22
1273.046136460803
 32
0.0
 13
1016.477932681891
 23
1273.046136460803
 33
0.0
  0
MTEXT
  5
29B
330
285
100
AcDbEntity
  8
0
 62
     0
100
AcDbMText
 10
1018.477932681891
 20
1274.921136460803
 30
0.0
 40
2.5
 41
0.0
 71
     5
 72
     1
  1
4
 73
     1
 44
1.0
  0
POINT
  5
29C
330
285
100
AcDbEntity
  8
Defpoints
 62
     0
100
AcDbPoint
 10
1020.477932681891
 20
1331.013360728284
 30
0.0
  0
POINT
  5
29D
330
285
100
AcDbEntity
  8
Defpoints
 62
     0
100
AcDbPoint
 10
1016.477932681891
 20
1315.013360728284
 30
0.0
  0
POINT
  5
29E
330
285
100
AcDbEntity
  8
Defpoints
 62
     0
100
AcDbPoint
 10
1016.477932681891
 20
1273.046136460803
 30
0.0
  0
ENDBLK
  5
292
330
285
100
AcDbEntity
  8
0
100
AcDbBlockEnd
  0
BLOCK
  5
2AB
330
2A1
100
AcDbEntity
  8
0
100
AcDbBlockBegin
  2
*D15
 70
     1
 10
0.0
 20
0.0
 30
0.0
  3
*D15
  1

  0
LINE
  5
2AE
330
2A1
100
AcDbEntity
  8
0
 62
     0
370
    -2
100
AcDbLine
 10
1017.102932681891
 20
1081.013360728284
 30
0.0
 11
1054.798456576121
 21
1081.013360728284
 31
0.0
  0
LINE
  5
2AF
330
2A1
100
AcDbEntity
  8
0
 62
     0
370
    -2
100
AcDbLine
 10
1021.102932681891
 20
1065.013360728283
 30
0.0
 11
1054.798456576121
 21
1065.013360728283
 31
0.0
  0
LINE
  5
2B0
330
2A1
100
AcDbEntity
  8
0
 62
     0
370
    -2
100
AcDbLine
 10
1053.548456576121
 20
1078.513360728283
 30
0.0
 11
1053.548456576121
 21
1067.513360728283
 31
0.0
  0
SOLID
  5
2B1
330
2A1
100
AcDbEntity
  8
0
 62
     0
100
AcDbTrace
 10
1053.131789909454
 20
1078.513360728283
 30
0.0
 11
1053.965123242787
 21
1078.513360728283
 31
0.0
 12
1053.548456576121
 22
1081.013360728284
 32
0.0
 13
1053.548456576121
 23
1081.013360728284
 33
0.0
  0
SOLID
  5
2B2
330
2A1
100
AcDbEntity
  8
0
 62
     0
100
AcDbTrace
 10
1053.131789909454
 20
1067.513360728283
 30
0.0
 11
1053.965123242787
 21
1067.513360728283
 31
0.0
 12
1053.548456576121
 22
1065.013360728283
 32
0.0
 13
1053.548456576121
 23
1065.013360728283
 33
0.0
  0
MTEXT
  5
2B3
330
2A1
100
AcDbEntity
  8
0
 62
     0
100
AcDbMText
 10
1051.67345657612
 20
1073.013360728284
 30
0.0
 40
2.5
 41
0.0
 71
     5
 72
     1
  1
16
 11
0.0000000000000001
 21
1.0
 31
0.0
 73
     1
 44
1.0
  0
POINT
  5
2B4
330
2A1
100
AcDbEntity
  8
Defpoints
 62
     0
100
AcDbPoint
 10
1016.477932681891
 20
1081.013360728284
 30
0.0
  0
POINT
  5
2B5
330
2A1
100
AcDbEntity
  8
Defpoints
 62
     0
100
AcDbPoint
 10
1020.477932681891
 20
1065.013360728283
 30
0.0
  0
POINT
  5
2B6
330
2A1
100
AcDbEntity
  8
Defpoints
 62
     0
100
AcDbPoint
 10
1053.548456576121
 20
1065.013360728283
 30
0.0
  0
ENDBLK
  5
2AC
330
2A1
100
AcDbEntity
  8
0
100
AcDbBlockEnd
  0
BLOCK
  5
2C3
330
2B9
100
AcDbEntity
  8
0
100
AcDbBlockBegin
  2
*D16
 70
     1
 10
0.0
 20
0.0
 30
0.0
  3
*D16
  1

  0
LINE
  5
2C6
330
2B9
100
AcDbEntity
  8
0
 62
     0
370
    -2
100
AcDbLine
 10
994.8529326818915
 20
1315.013360728284
 30
0.0
 11
977.1328273919635
 21
1315.013360728284
 31
0.0
  0
LINE
  5
2C7
330
2B9
100
AcDbEntity
  8
0
 62
     0
370
    -2
100
AcDbLine
 10
994.8529326818915
 20
1081.013360728284
 30
0.0
 11
977.1328273919634
 21
1081.013360728284
 31
0.0
  0
LINE
  5
2C8
330
2B9
100
AcDbEntity
  8
0
 62
     0
370
    -2
100
AcDbLine
 10
978.3828273919636
 20
1312.513360728283
 30
0.0
 11
978.3828273919635
 21
1083.513360728284
 31
0.0
  0
SOLID
  5
2C9
330
2B9
100
AcDbEntity
  8
0
 62
     0
100
AcDbTrace
 10
977.966160725297
 20
1312.513360728283
 30
0.0
 11
978.7994940586301
 21
1312.513360728283
 31
0.0
 12
978.3828273919636
 22
1315.013360728284
 32
0.0
 13
978.3828273919636
 23
1315.013360728284
 33
0.0
  0
SOLID
  5
2CA
330
2B9
100
AcDbEntity
  8
0
 62
     0
100
AcDbTrace
 10
977.9661607252968
 20
1083.513360728284
 30
0.0
 11
978.7994940586301
 21
1083.513360728284
 31
0.0
 12
978.3828273919635
 22
1081.013360728284
 32
0.0
 13
978.3828273919635
 23
1081.013360728284
 33
0.0
  0
MTEXT
  5
2CB
330
2B9
100
AcDbEntity
  8
0
 62
     0
100
AcDbMText
 10
976.5078273919634
 20
1198.013360728284
 30
0.0
 40
2.5
 41
0.0
 71
     5
 72
     1
  1
234
 11
0.0000000000000001
 21
1.0
 31
0.0
 73
     1
 44
1.0
  0
POINT
  5
2CC
330
2B9
100
AcDbEntity
  8
Defpoints
 62
     0
100
AcDbPoint
 10
995.4779326818917
 20
1315.013360728284
 30
0.0
  0
POINT
  5
2CD
330
2B9
100
AcDbEntity
  8
Defpoints
 62
     0
100
AcDbPoint
 10
995.4779326818915
 20
1081.013360728284
 30
0.0
  0
POINT
  5
2CE
330
2B9
100
AcDbEntity
  8
Defpoints
 62
     0
100
AcDbPoint
 10
978.3828273919635
 20
1081.013360728284
 30
0.0
  0
ENDBLK
  5
2C4
330
2B9
100
AcDbEntity
  8
0
100
AcDbBlockEnd
  0
BLOCK
  5
2DB
330
2D1
100
AcDbEntity
  8
0
100
AcDbBlockBegin
  2
*D17
 70
     1
 10
0.0
 20
0.0
 30
0.0
  3
*D17
  1

  0
LINE
  5
2DE
330
2D1
100
AcDbEntity
  8
0
 62
     0
370
    -2
100
AcDbLine
 10
1021.102932681891
 20
1331.013360728284
 30
0.0
 11
1085.69783220235
 21
1331.013360728284
 31
0.0
  0
LINE
  5
2DF
330
2D1
100
AcDbEntity
  8
0
 62
     0
370
    -2
100
AcDbLine
 10
1021.102932681891
 20
1065.013360728283
 30
0.0
 11
1085.69783220235
 21
1065.013360728283
 31
0.0
  0
LINE
  5
2E0
330
2D1
100
AcDbEntity
  8
0
 62
     0
370
    -2
100
AcDbLine
 10
1084.447832202349
 20
1328.513360728283
 30
0.0
 11
1084.447832202349
 21
1067.513360728283
 31
0.0
  0
SOLID
  5
2E1
330
2D1
100
AcDbEntity
  8
0
 62
     0
100
AcDbTrace
 10
1084.031165535683
 20
1328.513360728283
 30
0.0
 11
1084.864498869016
 21
1328.513360728283
 31
0.0
 12
1084.447832202349
 22
1331.013360728284
 32
0.0
 13
1084.447832202349
 23
1331.013360728284
 33
0.0
  0
SOLID
  5
2E2
330
2D1
100
AcDbEntity
  8
0
 62
     0
100
AcDbTrace
 10
1084.031165535683
 20
1067.513360728283
 30
0.0
 11
1084.864498869016
 21
1067.513360728283
 31
0.0
 12
1084.447832202349
 22
1065.013360728283
 32
0.0
 13
1084.447832202349
 23
1065.013360728283
 33
0.0
  0
MTEXT
  5
2E3
330
2D1
100
AcDbEntity
  8
0
 62
     0
100
AcDbMText
 10
1082.572832202349
 20
1198.013360728284
 30
0.0
 40
2.5
 41
0.0
 71
     5
 72
     1
  1
266
 11
0.0000000000000001
 21
1.0
 31
0.0
 73
     1
 44
1.0
  0
POINT
  5
2E4
330
2D1
100
AcDbEntity
  8
Defpoints
 62
     0
100
AcDbPoint
 10
1020.477932681891
 20
1331.013360728284
 30
0.0
  0
POINT
  5
2E5
330
2D1
100
AcDbEntity
  8
Defpoints
 62
     0
100
AcDbPoint
 10
1020.477932681891
 20
1065.013360728283
 30
0.0
  0
POINT
  5
2E6
330
2D1
100
AcDbEntity
  8
Defpoints
 62
     0
100
AcDbPoint
 10
1084.447832202349
 20
1065.013360728283
 30
0.0
  0
ENDBLK
  5
2DC
330
2D1
100
AcDbEntity
  8
0
100
AcDbBlockEnd
  0
ENDSEC
  0
SECTION
  2
ENTITIES
  0
LWPOLYLINE
  5
17F
102
{ACAD_REACTORS
330
20A
330
222
102
}
330
1F
100
AcDbEntity
  8
0
100
AcDbPolyline
 90
        4
 70
     1
 43
0.0
 10
689.5039176285263
 20
1065.013360728284
 10
890.5039176285264
 20
1065.013360728284
 10
890.5039176285264
 20
1331.013360728284
 10
689.5039176285263
 20
1331.013360728284
  0
LINE
  5
190
102
{ACAD_REACTORS
330
23A
102
}
330
1F
100
AcDbEntity
  8
0
100
AcDbLine
 10
874.5039176285262
 20
1315.013360728283
 30
0.0
 11
874.5039176285262
 21
1081.013360728284
 31
0.0
  0
LINE
  5
191
102
{ACAD_REACTORS
330
23A
330
26A
102
}
330
1F
100
AcDbEntity
  8
0
100
AcDbLine
 10
874.5039176285263
 20
1315.013360728284
 30
0.0
 11
705.5039176285263
 21
1315.013360728284
 31
0.0
  0
LINE
  5
192
330
1F
100
AcDbEntity
  8
0
100
AcDbLine
 10
705.5039176285262
 20
1315.013360728284
 30
0.0
 11
705.5039176285262
 21
1081.013360728284
 31
0.0
  0
LINE
  5
194
102
{ACAD_REACTORS
330
26A
102
}
330
1F
100
AcDbEntity
  8
0
100
AcDbLine
 10
874.5039176285262
 20
1081.013360728284
 30
0.0
 11
705.5039176285262
 21
1081.013360728284
 31
0.0
  0
LINE
  5
1A5
330
1F
100
AcDbEntity
  8
0
100
AcDbLine
 10
659.5039176285263
 20
957.337001464155
 30
0.0
 11
659.5039176285263
 21
1400.098991683854
 31
0.0
  0
LINE
  5
1A9
330
1F
100
AcDbEntity
  8
0
100
AcDbLine
 10
920.5039176285263
 20
957.337001464155
 30
0.0
 11
920.5039176285263
 21
1395.862034995186
 31
0.0
  0
LWPOLYLINE
  5
1AA
330
1F
100
AcDbEntity
  8
0
100
AcDbPolyline
 90
       17
 70
     0
 43
0.0
 10
659.5039176285263
 20
1400.098991683854
 10
680.4674486007061
 20
1385.975802721628
 10
701.6624443573974
 20
1412.103703779373
 10
720.7379405384199
 20
1371.146452833662
 10
739.1069353078828
 20
1408.57290506119
 10
751.8239327618975
 20
1390.212759410295
 10
759.5954343120228
 20
1399.39283371337
 10
777.9644290814858
 20
1380.326527136737
 10
791.3879279470602
 20
1406.454428194483
 10
801.9854258254063
 20
1388.800440514073
 10
819.647923842319
 20
1402.217471505815
 10
835.8974190361122
 20
1385.269644751143
 10
850.027414654237
 20
1396.568195920925
 10
868.3964140827084
 20
1370.440294863178
 10
881.1134115367231
 20
1382.445004003444
 10
897.3629067305173
 20
1371.852613759401
 10
920.5039176285263
 20
1395.862034995186
  0
LWPOLYLINE
  5
1AC
330
1F
100
AcDbEntity
  8
0
100
AcDbPolyline
 90
       18
 70
     0
 43
0.0
 10
659.5039176285263
 20
957.337001464155
 10
673.4024484621395
 20
968.6355526339362
 10
693.8909428072711
 20
958.0431594346391
 10
707.3144416728455
 20
979.2279428779789
 10
720.0314391268602
 20
967.9293917081977
 10
751.1174360093463
 20
976.4033050855337
 10
751.1174360093463
 20
958.0431594346391
 10
783.6164263969339
 20
967.2232337377137
 10
794.2139289342885
 20
956.6308405384166
 10
812.5829237037514
 20
974.9909861893112
 10
828.8324188975456
 20
966.517072811975
 10
845.0819187503483
 20
981.3464226999398
 10
862.0379153557014
 20
951.6877229240103
 10
862.0379153557014
 20
960.8677972270843
 10
879.700413372614
 20
960.8677972270843
 10
897.3629067305173
 20
949.5692460573032
 10
897.3629067305173
 20
969.3417106044202
 10
920.5039176285263
 20
957.337001464155
  0
LWPOLYLINE
  5
1BF
102
{ACAD_REACTORS
330
1F2
330
282
330
29F
330
2CF
330
2E7
102
}
330
1F
100
AcDbEntity
  8
0
100
AcDbPolyline
 90
       18
 70
     1
 43
0.0
 10
995.4779326818917
 20
1315.013360728284
 10
995.4779326818917
 20
1331.013360728284
 10
995.4779326818917
 20
1394.180028474303
 10
999.4044614314253
 20
1390.43356417666
 10
1000.951569163674
 20
1393.732470015044
 10
1003.014377920336
 20
1391.979927488974
 10
1005.386610087052
 20
1396.000467963637
 10
1006.624299068256
 20
1391.464472066451
 10
1007.965124527136
 20
1393.732470015044
 10
1010.234215557167
 20
1391.155198812938
 10
1011.575041016047
 20
1395.897376879132
 10
1013.019007611611
 20
1390.124290923145
 10
1014.875538753914
 20
1393.526287846035
 10
1017.350912057313
 20
1390.021199838641
 10
1020.477932681891
 20
1394.180028474303
 10
1020.477932681891
 20
1331.013360728284
 10
1016.477932681891
 20
1331.013360728284
 10
1016.477932681891
 20
1315.013360728284
  0
LWPOLYLINE
  5
1C0
102
{ACAD_REACTORS
330
1F2
330
2B7
330
2CF
102
}
330
1F
100
AcDbEntity
  8
0
100
AcDbPolyline
 90
       18
 70
     1
 43
0.0
 10
1016.477932681891
 20
1065.013360728283
 10
1016.477932681891
 20
1081.013360728284
 10
995.4779326818915
 20
1081.013360728284
 10
995.4779326818915
 20
1065.013360728283
 10
995.4779326818917
 20
955.0958726859644
 10
998.3523361114821
 20
959.4282308879328
 10
1001.036186081392
 20
956.7525851868872
 10
1002.970108018774
 20
961.9072280697405
 10
1004.646177114445
 20
958.9433091509132
 10
1007.353666894977
 20
961.2628969705701
 10
1009.158660081998
 20
955.3350591329163
 10
1010.447942926589
 20
958.1701141961126
 10
1013.542218958201
 20
955.9793902320862
 10
1015.089354644502
 20
959.3299066283138
 10
1016.894347831524
 20
956.4948545203716
 10
1018.312559426475
 20
959.0721759617981
 10
1020.477932681892
 20
955.0958726859644
 10
1020.477932681891
 20
1065.013360728283
  0
LWPOLYLINE
  5
1CC
102
{ACAD_REACTORS
330
2B7
330
2E7
102
}
330
1F
100
AcDbEntity
  8
0
100
AcDbPolyline
 90
        2
 70
     0
 43
0.0
 10
1020.477932681891
 20
1065.013360728283
 10
1020.477932681891
 20
1065.013360728283
  0
HATCH
  5
1F2
330
1F
100
AcDbEntity
  8
0
100
AcDbHatch
 10
0.0
 20
0.0
 30
0.0
210
0.0
220
0.0
230
1.0
  2
ANSI31
 70
     0
 71
     1
 91
        2
 92
        7
 72
     0
 73
     1
 93
       18
 10
1020.477932681891
 20
1394.180028474303
 10
1017.350912057313
 20
1390.021199838641
 10
1014.875538753914
 20
1393.526287846035
 10
1013.019007611611
 20
1390.124290923145
 10
1011.575041016047
 20
1395.897376879132
 10
1010.234215557167
 20
1391.155198812938
 10
1007.965124527136
 20
1393.732470015044
 10
1006.624299068255
 20
1391.464472066451
 10
1005.386610087052
 20
1396.000467963637
 10
1003.014377920336
 20
1391.979927488974
 10
1000.951569163674
 20
1393.732470015044
 10
999.4044614314253
 20
1390.43356417666
 10
995.4779326818917
 20
1394.180028474303
 10
995.4779326818917
 20
1331.013360728284
 10
995.4779326818917
 20
1315.013360728284
 10
1016.477932681891
 20
1315.013360728284
 10
1016.477932681891
 20
1331.013360728284
 10
1020.477932681891
 20
1331.013360728284
 97
        1
330
1BF
 92
        7
 72
     0
 73
     1
 93
       18
 10
1020.477932681892
 20
1065.013360728284
 10
1016.477932681891
 20
1065.013360728283
 10
1016.477932681891
 20
1081.013360728284
 10
995.4779326818913
 20
1081.013360728284
 10
995.4779326818915
 20
1065.013360728283
 10
995.4779326818915
 20
955.095872685964
 10
998.3523361114819
 20
959.4282308879327
 10
1001.036186081392
 20
956.7525851868868
 10
1002.970108018774
 20
961.9072280697404
 10
1004.646177114445
 20
958.943309150913
 10
1007.353666894977
 20
961.2628969705701
 10
1009.158660081998
 20
955.3350591329161
 10
1010.447942926589
 20
958.1701141961126
 10
1013.542218958201
 20
955.979390232086
 10
1015.089354644502
 20
959.3299066283137
 10
1016.894347831524
 20
956.4948545203716
 10
1018.312559426475
 20
959.0721759617981
 10
1020.477932681892
 20
955.0958726859644
 97
        1
330
1C0
 75
     0
 76
     1
 52
0.0
 41
1.0
 77
     0
 78
     1
 53
45.0
 43
0.0
 44
0.0
 45
-2.245064030267287
 46
2.245064030267288
 79
     0
 47
0.8427709073373128
 98
        2
 10
1006.405982575172
 20
1351.857922968691
 10
1006.405982575172
 20
1015.592329971592
  0
DIMENSION
  5
1F3
102
{ACAD_XDICTIONARY
360
200
102
}
102
{ACAD_REACTORS
330
20A
102
}
330
1F
100
AcDbEntity
  8
0
100
AcDbDimension
  2
*D8
 10
890.5039176285264
 20
1356.914548938353
 30
0.0
 11
790.0039176285263
 21
1358.789548938353
 31
0.0
 70
    32
 71
     5
 42
201.0
  3
ISO-25
100
AcDbAlignedDimension
 13
689.5039176285263
 23
1331.013360728284
 33
0.0
 14
890.5039176285264
 24
1331.013360728284
 34
0.0
100
AcDbRotatedDimension
  0
DIMENSION
  5
20B
102
{ACAD_XDICTIONARY
360
218
102
}
102
{ACAD_REACTORS
330
222
102
}
330
1F
100
AcDbEntity
  8
0
100
AcDbDimension
  2
*D9
 10
620.2308443608845
 20
1065.013360728284
 30
0.0
 11
618.3558443608843
 21
1198.013360728284
 31
0.0
 70
    32
 71
     5
 42
266.0
  3
ISO-25
100
AcDbAlignedDimension
 13
689.5039176285263
 23
1331.013360728284
 33
0.0
 14
689.5039176285263
 24
1065.013360728284
 34
0.0
 50
90.0
100
AcDbRotatedDimension
  0
DIMENSION
  5
223
102
{ACAD_XDICTIONARY
360
230
102
}
102
{ACAD_REACTORS
330
23A
102
}
330
1F
100
AcDbEntity
  8
0
100
AcDbDimension
  2
*D10
 10
874.5039176285262
 20
1270.951916319862
 30
0.0
 11
790.0039176285263
 21
1272.826916319862
 31
0.0
 70
    32
 71
     5
 42
168.9999999999999
  3
ISO-25
100
AcDbAlignedDimension
 13
705.5039176285263
 23
1315.013360728284
 33
0.0
 14
874.5039176285262
 24
1315.013360728283
 34
0.0
100
AcDbRotatedDimension
  0
DIMENSION
  5
253
102
{ACAD_XDICTIONARY
360
260
102
}
102
{ACAD_REACTORS
330
26A
102
}
330
1F
100
AcDbEntity
  8
0
100
AcDbDimension
  2
*D12
 10
944.231864302189
 20
1081.013360728284
 30
0.0
 11
942.3568643021889
 21
1198.013360728284
 31
0.0
 70
    32
 71
     5
 42
234.0
  3
ISO-25
100
AcDbAlignedDimension
 13
874.5039176285263
 23
1315.013360728284
 33
0.0
 14
874.5039176285262
 24
1081.013360728284
 34
0.0
 50
90.0
100
AcDbRotatedDimension
  0
DIMENSION
  5
26B
102
{ACAD_XDICTIONARY
360
278
102
}
102
{ACAD_REACTORS
330
282
102
}
330
1F
100
AcDbEntity
  8
0
100
AcDbDimension
  2
*D13
 10
1020.477932681891
 20
1409.805142592736
 30
0.0
 11
1007.977932681891
 21
1411.680142592736
 31
0.0
 70
    32
 71
     5
 42
24.99999999999966
  3
ISO-25
100
AcDbAlignedDimension
 13
995.4779326818917
 23
1394.180028474303
 33
0.0
 14
1020.477932681891
 24
1393.158561706261
 34
0.0
100
AcDbRotatedDimension
  0
DIMENSION
  5
284
102
{ACAD_XDICTIONARY
360
293
102
}
102
{ACAD_REACTORS
330
29F
102
}
330
1F
100
AcDbEntity
  8
0
100
AcDbDimension
  2
*D14
 10
1016.477932681891
 20
1273.046136460803
 30
0.0
 11
1018.477932681891
 21
1274.921136460803
 31
0.0
 70
    32
 71
     5
 42
4.000000000000113
  3
ISO-25
100
AcDbAlignedDimension
 13
1020.477932681891
 23
1331.013360728284
 33
0.0
 14
1016.477932681891
 24
1315.013360728284
 34
0.0
100
AcDbRotatedDimension
  0
DIMENSION
  5
2A0
102
{ACAD_XDICTIONARY
360
2AD
102
}
102
{ACAD_REACTORS
330
2B7
102
}
330
1F
100
AcDbEntity
  8
0
100
AcDbDimension
  2
*D15
 10
1053.548456576121
 20
1065.013360728283
 30
0.0
 11
1051.67345657612
 21
1073.013360728284
 31
0.0
 70
    32
 71
     5
 42
16.00000000000022
  3
ISO-25
100
AcDbAlignedDimension
 13
1016.477932681891
 23
1081.013360728284
 33
0.0
 14
1020.477932681891
 24
1065.013360728283
 34
0.0
 50
90.0
100
AcDbRotatedDimension
  0
DIMENSION
  5
2B8
102
{ACAD_XDICTIONARY
360
2C5
102
}
102
{ACAD_REACTORS
330
2CF
102
}
330
1F
100
AcDbEntity
  8
0
100
AcDbDimension
  2
*D16
 10
978.3828273919635
 20
1081.013360728284
 30
0.0
 11
976.5078273919634
 21
1198.013360728284
 31
0.0
 70
    32
 71
     5
 42
234.0
  3
ISO-25
100
AcDbAlignedDimension
 13
995.4779326818917
 23
1315.013360728284
 33
0.0
 14
995.4779326818915
 24
1081.013360728284
 34
0.0
 50
90.0
100
AcDbRotatedDimension
  0
DIMENSION
  5
2D0
102
{ACAD_XDICTIONARY
360
2DD
102
}
102
{ACAD_REACTORS
330
2E7
102
}
330
1F
100
AcDbEntity
  8
0
100
AcDbDimension
  2
*D17
 10
1084.447832202349
 20
1065.013360728283
 30
0.0
 11
1082.572832202349
 21
1198.013360728284
 31
0.0
 70
    32
 71
     5
 42
266.0000000000002
  3
ISO-25
100
AcDbAlignedDimension
 13
1020.477932681891
 23
1331.013360728284
 33
0.0
 14
1020.477932681891
 24
1065.013360728283
 34
0.0
 50
90.0
100
AcDbRotatedDimension
  0
ENDSEC
  0
SECTION
  2
OBJECTS
  0
DICTIONARY
  5
C
330
0
100
AcDbDictionary
281
     1
  3
ACAD_COLOR
350
6B
  3
ACAD_GROUP
350
D
  3
ACAD_LAYOUT
350
1A
  3
ACAD_MATERIAL
350
6A
  3
ACAD_MLINESTYLE
350
17
  3
ACAD_PLOTSETTINGS
350
19
  3
ACAD_PLOTSTYLENAME
350
E
  3
AcDbVariableDictionary
350
5E
  0
DICTIONARY
  5
200
330
1F3
100
AcDbDictionary
280
     1
281
     1
  3
ACAD_DIMASSOC
360
20A
  0
DICTIONARY
  5
218
330
20B
100
AcDbDictionary
280
     1
281
     1
  3
ACAD_DIMASSOC
360
222
  0
DICTIONARY
  5
230
330
223
100
AcDbDictionary
280
     1
281
     1
  3
ACAD_DIMASSOC
360
23A
  0
DICTIONARY
  5
260
330
253
100
AcDbDictionary
280
     1
281
     1
  3
ACAD_DIMASSOC
360
26A
  0
DICTIONARY
  5
278
330
26B
100
AcDbDictionary
280
     1
281
     1
  3
ACAD_DIMASSOC
360
282
  0
DICTIONARY
  5
293
330
284
100
AcDbDictionary
280
     1
281
     1
  3
ACAD_DIMASSOC
360
29F
  0
DICTIONARY
  5
2AD
330
2A0
100
AcDbDictionary
280
     1
281
     1
  3
ACAD_DIMASSOC
360
2B7
  0
DICTIONARY
  5
2C5
330
2B8
100
AcDbDictionary
280
     1
281
     1
  3
ACAD_DIMASSOC
360
2CF
  0
DICTIONARY
  5
2DD
330
2D0
100
AcDbDictionary
280
     1
281
     1
  3
ACAD_DIMASSOC
360
2E7
  0
DICTIONARY
  5
6B
102
{ACAD_REACTORS
330
C
102
}
330
C
100
AcDbDictionary
281
     1
  0
DICTIONARY
  5
D
102
{ACAD_REACTORS
330
C
102
}
330
C
100
AcDbDictionary
281
     1
  0
DICTIONARY
  5
1A
102
{ACAD_REACTORS
330
C
102
}
330
C
100
AcDbDictionary
281
     1
  3
Model
350
22
  3
布局1
350
51
  3
布局2
350
56
  0
DICTIONARY
  5
6A
102
{ACAD_REACTORS
330
C
102
}
330
C
100
AcDbDictionary
281
     1
  0
DICTIONARY
  5
17
102
{ACAD_REACTORS
330
C
102
}
330
C
100
AcDbDictionary
281
     1
  3
Standard
350
18
  0
DICTIONARY
  5
19
102
{ACAD_REACTORS
330
C
102
}
330
C
100
AcDbDictionary
281
     1
  0
ACDBDICTIONARYWDFLT
  5
E
102
{ACAD_REACTORS
330
C
102
}
330
C
100
AcDbDictionary
281
     1
  3
Normal
350
F
100
AcDbDictionaryWithDefault
340
F
  0
DICTIONARY
  5
5E
102
{ACAD_REACTORS
330
C
102
}
330
C
100
AcDbDictionary
281
     1
  3
DIMASSOC
350
5F
  3
HIDETEXT
350
63
  0
DIMASSOC
  5
20A
102
{ACAD_REACTORS
330
200
102
}
330
200
100
AcDbDimAssoc
330
1F3
 90
        3
 70
     0
 71
     0
  1
AcDbOsnapPointRef
 72
     1
331
17F
 73
     2
 91
        3
 40
1.0
 10
0.0
 20
0.0
 30
2.000000000000000E+50
 75
     0
  1
AcDbOsnapPointRef
 72
     1
331
17F
 73
     2
 91
        2
 40
1.0
 10
0.0
 20
0.0
 30
2.000000000000000E+50
 75
     0
  0
DIMASSOC
  5
222
102
{ACAD_REACTORS
330
218
102
}
330
218
100
AcDbDimAssoc
330
20B
 90
        3
 70
     0
 71
     0
  1
AcDbOsnapPointRef
 72
     1
331
17F
 73
     2
 91
        3
 40
1.0
 10
0.0
 20
0.0
 30
2.000000000000000E+50
 75
     0
  1
AcDbOsnapPointRef
 72
    13
331
17F
 73
     2
 91
        1
 40
0.0
 10
0.0
 20
0.0
 30
2.000000000000000E+50
 75
     0
  0
DIMASSOC
  5
23A
102
{ACAD_REACTORS
330
230
102
}
330
230
100
AcDbDimAssoc
330
223
 90
        3
 70
     0
 71
     0
  1
AcDbOsnapPointRef
 72
     1
331
191
 73
     2
 91
        0
 40
1.0
 10
0.0
 20
0.0
 30
2.000000000000000E+50
 75
     0
  1
AcDbOsnapPointRef
 72
    13
331
190
 73
     2
 91
        0
 40
0.0
 10
0.0
 20
0.0
 30
2.000000000000000E+50
 75
     0
  0
DIMASSOC
  5
26A
102
{ACAD_REACTORS
330
260
102
}
330
260
100
AcDbDimAssoc
330
253
 90
        3
 70
     0
 71
     0
  1
AcDbOsnapPointRef
 72
    13
331
191
 73
     2
 91
        0
 40
0.0
 10
0.0
 20
0.0
 30
2.000000000000000E+50
 75
     0
  1
AcDbOsnapPointRef
 72
    13
331
194
 73
     2
 91
        0
 40
0.0
 10
0.0
 20
0.0
 30
2.000000000000000E+50
 75
     0
  0
DIMASSOC
  5
282
102
{ACAD_REACTORS
330
278
102
}
330
278
100
AcDbDimAssoc
330
26B
 90
        1
 70
     0
 71
     0
  1
AcDbOsnapPointRef
 72
     1
331
1BF
 73
     2
 91
        2
 40
1.0
 10
0.0
 20
0.0
 30
2.000000000000000E+50
 75
     0
  0
DIMASSOC
  5
29F
102
{ACAD_REACTORS
330
293
102
}
330
293
100
AcDbDimAssoc
330
284
 90
        3
 70
     0
 71
     0
  1
AcDbOsnapPointRef
 72
     1
331
1BF
 73
     2
 91
       15
 40
1.0
 10
0.0
 20
0.0
 30
2.000000000000000E+50
 75
     0
  1
AcDbOsnapPointRef
 72
     1
331
1BF
 73
     2
 91
       17
 40
1.0
 10
0.0
 20
0.0
 30
2.000000000000000E+50
 75
     0
  0
DIMASSOC
  5
2B7
102
{ACAD_REACTORS
330
2AD
102
}
330
2AD
100
AcDbDimAssoc
330
2A0
 90
        3
 70
     0
 71
     0
  1
AcDbOsnapPointRef
 72
     1
331
1C0
 73
     2
 91
        1
 40
1.0
 10
0.0
 20
0.0
 30
2.000000000000000E+50
 75
     0
  1
AcDbOsnapPointRef
 72
     1
331
1CC
 73
     2
 91
        1
 40
0.0
 10
0.0
 20
0.0
 30
2.000000000000000E+50
 75
     0
  0
DIMASSOC
  5
2CF
102
{ACAD_REACTORS
330
2C5
102
}
330
2C5
100
AcDbDimAssoc
330
2B8
 90
        3
 70
     0
 71
     0
  1
AcDbOsnapPointRef
 72
    13
331
1BF
 73
     2
 91
        1
 40
0.0
 10
0.0
 20
0.0
 30
2.000000000000000E+50
 75
     0
  1
AcDbOsnapPointRef
 72
     1
331
1C0
 73
     2
 91
        2
 40
1.0
 10
0.0
 20
0.0
 30
2.000000000000000E+50
 75
     0
  0
DIMASSOC
  5
2E7
102
{ACAD_REACTORS
330
2DD
102
}
330
2DD
100
AcDbDimAssoc
330
2D0
 90
        3
 70
     0
 71
     0
  1
AcDbOsnapPointRef
 72
     1
331
1BF
 73
     2
 91
       15
 40
1.0
 10
0.0
 20
0.0
 30
2.000000000000000E+50
 75
     0
  1
AcDbOsnapPointRef
 72
     1
331
1CC
 73
     2
 91
        1
 40
0.0
 10
0.0
 20
0.0
 30
2.000000000000000E+50
 75
     0
  0
LAYOUT
  5
22
102
{ACAD_REACTORS
330
1A
102
}
330
1A
100
AcDbPlotSettings
  1

  2
none_device
  4
ANSI_A_(8.50_x_11.00_Inches)
  6

 40
6.349999904632568
 41
19.04999923706055
 42
6.350006103515625
 43
19.04998779296875
 44
215.8999938964844
 45
279.3999938964844
 46
0.0
 47
0.0
 48
0.0
 49
0.0
140
0.0
141
0.0
142
1.0
143
78.436453180766
 70
 11952
 72
     0
 73
     1
 74
     0
  7

 75
     0
147
0.0127491741332998
 76
     0
 77
     2
 78
   300
148
0.0
149
0.0
100
AcDbLayout
  1
Model
 70
     1
 71
     0
 10
0.0
 20
0.0
 11
12.0
 21
9.0
 12
0.0
 22
0.0
 32
0.0
 14
0.0
 24
0.0
 34
0.0
 15
0.0
 25
0.0
 35
0.0
146
0.0
 13
0.0
 23
0.0
 33
0.0
 16
1.0
 26
0.0
 36
0.0
 17
0.0
 27
1.0
 37
0.0
 76
     0
330
1F
  0
LAYOUT
  5
51
102
{ACAD_REACTORS
330
1A
102
}
330
1A
100
AcDbPlotSettings
  1

  2
None
  4

  6

 40
0.0
 41
0.0
 42
0.0
 43
0.0
 44
0.0
 45
0.0
 46
0.0
 47
0.0
 48
0.0
 49
0.0
140
0.0
141
0.0
142
1.0
143
1.0
 70
   688
 72
     0
 73
     0
 74
     5
  7

 75
    16
147
1.0
 76
     0
 77
     2
 78
   300
148
0.0
149
0.0
100
AcDbLayout
  1
布局1
 70
     1
 71
     1
 10
0.0
 20
0.0
 11
12.0
 21
9.0
 12
0.0
 22
0.0
 32
0.0
 14
0.0
 24
0.0
 34
0.0
 15
0.0
 25
0.0
 35
0.0
146
0.0
 13
0.0
 23
0.0
 33
0.0
 16
1.0
 26
0.0
 36
0.0
 17
0.0
 27
1.0
 37
0.0
 76
     0
330
50
  0
LAYOUT
  5
56
102
{ACAD_REACTORS
330
1A
102
}
330
1A
100
AcDbPlotSettings
  1

  2
None
  4

  6

 40
0.0
 41
0.0
 42
0.0
 43
0.0
 44
0.0
 45
0.0
 46
0.0
 47
0.0
 48
0.0
 49
0.0
140
0.0
141
0.0
142
1.0
143
1.0
 70
   688
 72
     0
 73
     0
 74
     5
  7

 75
    16
147
1.0
 76
     0
 77
     2
 78
   300
148
0.0
149
0.0
100
AcDbLayout
  1
布局2
 70
     1
 71
     2
 10
0.0
 20
0.0
 11
12.0
 21
9.0
 12
0.0
 22
0.0
 32
0.0
 14
0.0
 24
0.0
 34
0.0
 15
0.0
 25
0.0
 35
0.0
146
0.0
 13
0.0
 23
0.0
 33
0.0
 16
1.0
 26
0.0
 36
0.0
 17
0.0
 27
1.0
 37
0.0
 76
     0
330
55
  0
MLINESTYLE
  5
18
102
{ACAD_REACTORS
330
17
102
}
330
17
100
AcDbMlineStyle
  2
STANDARD
 70
     0
  3

 62
   256
 51
90.0
 52
90.0
 71
     2
 49
0.5
 62
   256
  6
BYLAYER
 49
-0.5
 62
   256
  6
BYLAYER
  0
ACDBPLACEHOLDER
  5
F
102
{ACAD_REACTORS
330
E
102
}
330
E
  0
DICTIONARYVAR
  5
5F
102
{ACAD_REACTORS
330
5E
102
}
330
5E
100
DictionaryVariables
280
     0
  1
2
  0
DICTIONARYVAR
  5
63
102
{ACAD_REACTORS
330
5E
102
}
330
5E
100
DictionaryVariables
280
     0
  1
1
  0
ENDSEC
  0
EOF
