  0
SECTION
  2
HEADER
  9
$ACADVER
  1
AC1009
  9
$INSBASE
 10
0.0
 20
0.0
 30
0.0
  9
$EXTMIN
 10
197.34926616675139
 20
729.58330644034049
 30
-0.0015258207003583
  9
$EXTMAX
 10
615.24789325005963
 20
1075.109732252153
 30
0.0000000349246037
  9
$LIMMIN
 10
0.0
 20
0.0
  9
$LIMMAX
 10
420.0
 20
297.0
  9
$ORTHOMODE
 70
     0
  9
$REGENMODE
 70
     1
  9
$FILLMODE
 70
     1
  9
$QTEXTMODE
 70
     0
  9
$MIRRTEXT
 70
     0
  9
$DRAGMODE
 70
     2
  9
$LTSCALE
 40
1.0
  9
$OSMODE
 70
   295
  9
$ATTMODE
 70
     1
  9
$TEXTSIZE
 40
2.5
  9
$TRACEWID
 40
1.0
  9
$TEXTSTYLE
  7
STANDARD
  9
$CLAYER
  8
0
  9
$CELTYPE
  6
BYLAYER
  9
$CECOLOR
 62
   256
  9
$DIMSCALE
 40
1.0
  9
$DIMASZ
 40
4.0
  9
$DIMEXO
 40
0.625
  9
$DIMDLI
 40
3.75
  9
$DIMRND
 40
0.0
  9
$DIMDLE
 40
0.0
  9
$DIMEXE
 40
1.25
  9
$DIMTP
 40
0.0
  9
$DIMTM
 40
0.0
  9
$DIMTXT
 40
10.0
  9
$DIMCEN
 40
2.5
  9
$DIMTSZ
 40
0.0
  9
$DIMTOL
 70
     0
  9
$DIMLIM
 70
     0
  9
$DIMTIH
 70
     0
  9
$DIMTOH
 70
     0
  9
$DIMSE1
 70
     0
  9
$DIMSE2
 70
     0
  9
$DIMTAD
 70
     1
  9
$DIMZIN
 70
     8
  9
$DIMBLK
  1

  9
$DIMASO
 70
     1
  9
$DIMSHO
 70
     1
  9
$DIMPOST
  1

  9
$DIMAPOST
  1

  9
$DIMALT
 70
     0
  9
$DIMALTD
 70
     3
  9
$DIMALTF
 40
0.03937007874016
  9
$DIMLFAC
 40
1.0
  9
$DIMTOFL
 70
     1
  9
$DIMTVP
 40
0.0
  9
$DIMTIX
 70
     0
  9
$DIMSOXD
 70
     0
  9
$DIMSAH
 70
     0
  9
$DIMBLK1
  1

  9
$DIMBLK2
  1

  9
$DIMSTYLE
  2
ISO-25
  9
$DIMCLRD
 70
     0
  9
$DIMCLRE
 70
     0
  9
$DIMCLRT
 70
     0
  9
$DIMTFAC
 40
1.0
  9
$DIMGAP
 40
0.625
  9
$LUNITS
 70
     2
  9
$LUPREC
 70
     4
  9
$SKETCHINC
 40
1.0
  9
$FILLETRAD
 40
8.0
  9
$AUNITS
 70
     0
  9
$AUPREC
 70
     0
  9
$MENU
  1
.
  9
$ELEVATION
 40
0.0
  9
$PELEVATION
 40
0.0
  9
$THICKNESS
 40
0.0
  9
$LIMCHECK
 70
     0
  9
$BLIPMODE
 70
     0
  9
$CHAMFERA
 40
0.0
  9
$CHAMFERB
 40
0.0
  9
$SKPOLY
 70
     0
  9
$TDCREATE
 40
2458883.839585139
  9
$TDUPDATE
 40
2459406.5070447112
  9
$TDINDWG
 40
0.1254528704
  9
$TDUSRTIMER
 40
0.1254438194
  9
$USRTIMER
 70
     1
  9
$ANGBASE
 50
0.0
  9
$ANGDIR
 70
     0
  9
$PDMODE
 70
     0
  9
$PDSIZE
 40
0.0
  9
$PLINEWID
 40
0.0
  9
$COORDS
 70
     1
  9
$SPLFRAME
 70
     0
  9
$SPLINETYPE
 70
     6
  9
$SPLINESEGS
 70
     8
  9
$ATTDIA
 70
     1
  9
$ATTREQ
 70
     1
  9
$HANDLING
 70
     1
  9
$HANDSEED
  5
FCF
  9
$SURFTAB1
 70
     6
  9
$SURFTAB2
 70
     6
  9
$SURFTYPE
 70
     6
  9
$SURFU
 70
     6
  9
$SURFV
 70
     6
  9
$UCSNAME
  2

  9
$UCSORG
 10
0.0
 20
0.0
 30
0.0
  9
$UCSXDIR
 10
1.0
 20
0.0
 30
0.0
  9
$UCSYDIR
 10
0.0
 20
1.0
 30
0.0
  9
$PUCSNAME
  2

  9
$PUCSORG
 10
0.0
 20
0.0
 30
0.0
  9
$PUCSXDIR
 10
1.0
 20
0.0
 30
0.0
  9
$PUCSYDIR
 10
0.0
 20
1.0
 30
0.0
  9
$USERI1
 70
     0
  9
$USERI2
 70
     0
  9
$USERI3
 70
     0
  9
$USERI4
 70
     0
  9
$USERI5
 70
     0
  9
$USERR1
 40
0.0
  9
$USERR2
 40
0.0
  9
$USERR3
 40
0.0
  9
$USERR4
 40
0.0
  9
$USERR5
 40
0.0
  9
$WORLDVIEW
 70
     1
  9
$SHADEDGE
 70
     3
  9
$SHADEDIF
 70
    70
  9
$TILEMODE
 70
     1
  9
$MAXACTVP
 70
    64
  9
$PLIMCHECK
 70
     0
  9
$PEXTMIN
 10
0.0
 20
0.0
 30
0.0
  9
$PEXTMAX
 10
0.0
 20
0.0
 30
0.0
  9
$PLIMMIN
 10
0.0
 20
0.0
  9
$PLIMMAX
 10
12.0
 20
9.0
  9
$UNITMODE
 70
     0
  9
$VISRETAIN
 70
     1
  9
$PLINEGEN
 70
     0
  9
$PSLTSCALE
 70
     1
  0
ENDSEC
  0
SECTION
  2
TABLES
  0
TABLE
  2
VPORT
 70
     1
  0
VPORT
  2
*ACTIVE
 70
     0
 10
0.0
 20
0.0
 11
1.0
 21
1.0
 12
403.96392243475378
 22
896.07010803629066
 13
0.0
 23
0.0
 14
10.0
 24
10.0
 15
10.0
 25
10.0
 16
0.0
 26
0.0
 36
1.0
 17
0.0
 27
0.0
 37
0.0
 40
404.4721882901344
 41
2.161858974358974
 42
50.0
 43
0.0
 44
0.0
 50
0.0
 51
0.0
 71
     0
 72
  1000
 73
     1
 74
     3
 75
     0
 76
     0
 77
     0
 78
     0
  0
ENDTAB
  0
TABLE
  2
LTYPE
 70
     2
  0
LTYPE
  2
CONTINUOUS
 70
     0
  3
Solid line
 72
    65
 73
     0
 40
0.0
  0
ENDTAB
  0
TABLE
  2
LAYER
 70
     2
  0
LAYER
  2
0
 70
     0
 62
     7
  6
CONTINUOUS
  0
LAYER
  2
DEFPOINTS
 70
     0
 62
     7
  6
CONTINUOUS
  0
ENDTAB
  0
TABLE
  2
STYLE
 70
     4
  0
STYLE
  2
STANDARD
 70
     0
 40
0.0
 41
1.0
 50
0.0
 71
     0
 42
2.5
  3
txt
  4

  0
STYLE
  2
ANNOTATIVE
 70
     0
 40
0.0
 41
1.0
 50
0.0
 71
     0
 42
0.2
  3
txt
  4

  0
ENDTAB
  0
TABLE
  2
VIEW
 70
     0
  0
ENDTAB
  0
TABLE
  2
UCS
 70
     0
  0
ENDTAB
  0
TABLE
  2
APPID
 70
    10
  0
APPID
  2
ACAD
 70
     0
  0
APPID
  2
ACADANNOTATIVE
 70
     0
  0
APPID
  2
ACAD_DSTYLE_DIMJAG
 70
     0
  0
APPID
  2
ACAD_DSTYLE_DIMTALN
 70
     0
  0
APPID
  2
ACAD_DSTYLE_DIMRADIAL_EXTENSION
 70
     0
  0
APPID
  2
ACAD_NAV_VCDISPLAY
 70
     0
  0
APPID
  2
ACAD_MLEADERVER
 70
     0
  0
APPID
  2
ACADANNOMONITORALERTICONDI
 70
     0
  0
APPID
  2
ACAD_EXEMPT_FROM_CAD_STANDARDS
 70
     0
  0
APPID
  2
ACAD_PSEXT
 70
     0
  0
ENDTAB
  0
TABLE
  2
DIMSTYLE
 70
     5
  0
DIMSTYLE
  2
STANDARD
 70
     0
  3

  4

  5

  6

  7

 40
1.0
 41
4.0
 42
0.0625
 43
0.38
 44
0.18
 45
0.0
 46
0.0
 47
0.0
 48
0.0
140
10.0
141
0.09
142
0.0
143
25.399999999999999
144
1.0
145
0.0
146
1.0
147
0.09
 71
     0
 72
     0
 73
     1
 74
     1
 75
     0
 76
     0
 77
     0
 78
     0
170
     0
171
     2
172
     0
173
     0
174
     0
175
     0
176
     0
177
     0
178
     0
  0
DIMSTYLE
  2
ANNOTATIVE
 70
     0
  3

  4

  5

  6

  7

 40
1.0
 41
0.18
 42
0.0625
 43
0.38
 44
0.18
 45
0.0
 46
0.0
 47
0.0
 48
0.0
140
0.18
141
0.09
142
0.0
143
25.399999999999999
144
1.0
145
0.0
146
1.0
147
0.09
 71
     0
 72
     0
 73
     1
 74
     1
 75
     0
 76
     0
 77
     0
 78
     0
170
     0
171
     2
172
     0
173
     0
174
     0
175
     0
176
     0
177
     0
178
     0
  0
DIMSTYLE
  2
ISO-25
 70
     0
  3

  4

  5

  6

  7

 40
1.0
 41
4.5
 42
0.625
 43
3.75
 44
1.25
 45
0.0
 46
0.0
 47
0.0
 48
0.0
140
10.0
141
2.5
142
0.0
143
0.03937007874016
144
1.0
145
0.0
146
1.0
147
0.625
 71
     0
 72
     0
 73
     0
 74
     0
 75
     0
 76
     0
 77
     1
 78
     8
170
     0
171
     3
172
     1
173
     0
174
     0
175
     0
176
     0
177
     0
178
     0
  0
ENDTAB
  0
ENDSEC
  0
SECTION
  2
BLOCKS
  0
BLOCK
  8
0
  2
$MODEL_SPACE
 70
     0
 10
0.0
 20
0.0
 30
0.0
  3
$MODEL_SPACE
  1

  0
ENDBLK
  5
491
  8
0
  0
BLOCK
 67
     1
  8
0
  2
$PAPER_SPACE
 70
     0
 10
0.0
 20
0.0
 30
0.0
  3
$PAPER_SPACE
  1

  0
ENDBLK
  5
48D
 67
     1
  8
0
  0
BLOCK
  8
0
  2
*D2
 70
     1
 10
0.0
 20
0.0
 30
0.0
  3
*D2
  1

  0
LINE
  5
AD
  8
0
 62
     0
 10
474.5944409741158
 20
1090.3397521573261
 30
0.0
 11
474.5944409741158
 21
1109.9770778204941
 31
0.0
  0
LINE
  5
AE
  8
0
 62
     0
 10
771.09444097411563
 20
1090.3397521573261
 30
0.0
 11
771.09444097411563
 21
1109.9770778204941
 31
0.0
  0
LINE
  5
AF
  8
0
 62
     0
 10
477.09444097411603
 20
1108.7270778204941
 30
0.0
 11
768.59444097411608
 21
1108.7270778204941
 31
0.0
  0
SOLID
  5
B0
  8
0
 62
     0
 10
477.09444097411603
 20
1109.1437444871599
 30
0.0
 11
477.09444097411603
 21
1108.3104111538271
 31
0.0
 12
474.5944409741158
 22
1108.7270778204941
 32
0.0
 13
474.5944409741158
 23
1108.7270778204941
 33
0.0
  0
SOLID
  5
B1
  8
0
 62
     0
 10
768.59444097411608
 20
1109.1437444871599
 30
0.0
 11
768.59444097411608
 21
1108.3104111538271
 31
0.0
 12
771.09444097411563
 22
1108.7270778204941
 32
0.0
 13
771.09444097411563
 23
1108.7270778204941
 33
0.0
  0
INSERT
  5
B2
  8
0
  2
*U3
 10
0.0
 20
0.0
 30
0.0
  0
POINT
  5
B3
  8
DEFPOINTS
 62
     0
 10
474.5944409741158
 20
1089.7147521573261
 30
0.0
  0
POINT
  5
B4
  8
DEFPOINTS
 62
     0
 10
771.09444097411563
 20
1089.7147521573261
 30
0.0
  0
POINT
  5
B5
  8
DEFPOINTS
 62
     0
 10
771.09444097411563
 20
1108.7270778204941
 30
0.0
  0
ENDBLK
  5
AB
  8
0
  0
BLOCK
  8
0
  2
*U3
 70
     1
 10
0.0
 20
0.0
 30
0.0
  3
*U3
  1

  0
TEXT
  5
38F
  8
0
 62
     0
 10
617.84444097411563
 20
1109.798506391922
 30
0.0
 40
2.5
  1
296,5
  0
ENDBLK
  5
391
  8
0
  0
BLOCK
  8
0
  2
*D4
 70
     1
 10
0.0
 20
0.0
 30
0.0
  3
*D4
  1

  0
LINE
  5
117
  8
0
 62
     0
 10
366.17418302202998
 20
1089.714752157327
 30
0.0
 11
295.64649596495838
 21
1089.714752157327
 31
0.0
  0
LINE
  5
118
  8
0
 62
     0
 10
366.17418302202998
 20
1084.714752157327
 30
0.0
 11
295.64649596495838
 21
1084.714752157327
 31
0.0
  0
LINE
  5
119
  8
0
 62
     0
 10
296.89649596495838
 20
1092.2147521573261
 30
0.0
 11
296.89649596495838
 21
1094.714752157327
 31
0.0
  0
LINE
  5
11A
  8
0
 62
     0
 10
296.89649596495838
 20
1082.214752157327
 30
0.0
 11
296.89649596495838
 21
1079.7147521573261
 31
0.0
  0
LINE
  5
11B
  8
0
 62
     0
 10
296.89649596495838
 20
1089.714752157327
 30
0.0
 11
296.89649596495838
 21
1084.714752157327
 31
0.0
  0
SOLID
  5
11C
  8
0
 62
     0
 10
296.47982929829169
 20
1092.2147521573261
 30
0.0
 11
297.31316263162512
 21
1092.2147521573261
 31
0.0
 12
296.89649596495838
 22
1089.714752157327
 32
0.0
 13
296.89649596495838
 23
1089.714752157327
 33
0.0
  0
SOLID
  5
11D
  8
0
 62
     0
 10
296.47982929829169
 20
1082.214752157327
 30
0.0
 11
297.31316263162512
 21
1082.214752157327
 31
0.0
 12
296.89649596495838
 22
1084.714752157327
 32
0.0
 13
296.89649596495838
 23
1084.714752157327
 33
0.0
  0
INSERT
  5
11E
  8
0
  2
*U5
 10
0.0
 20
0.0
 30
0.0
  0
POINT
  5
11F
  8
DEFPOINTS
 62
     0
 10
366.79918302202981
 20
1089.714752157327
 30
0.0
  0
POINT
  5
120
  8
DEFPOINTS
 62
     0
 10
366.79918302202981
 20
1084.714752157327
 30
0.0
  0
POINT
  5
121
  8
DEFPOINTS
 62
     0
 10
296.89649596495838
 20
1084.714752157327
 30
0.0
  0
ENDBLK
  5
107
  8
0
  0
BLOCK
  8
0
  2
*U5
 70
     1
 10
0.0
 20
0.0
 30
0.0
  3
*U5
  1

  0
TEXT
  5
39C
  8
0
 62
     0
 10
296.27149596495821
 20
1086.381418823993
 30
0.0
 40
2.5
  1
5
 50
90.0
  0
ENDBLK
  5
39E
  8
0
  0
BLOCK
  8
0
  2
*D6
 70
     1
 10
0.0
 20
0.0
 30
0.0
  3
*D6
  1

  0
LINE
  5
141
  8
0
 62
     0
 10
481.59444097411603
 20
1152.947530692579
 30
0.0
 11
481.59444097411603
 21
1125.8771221076579
 31
0.0
  0
LINE
  5
142
  8
0
 62
     0
 10
764.03169490730954
 20
1158.5671473237919
 30
0.0
 11
764.03169490730954
 21
1125.8771221076579
 31
0.0
  0
LINE
  5
143
  8
0
 62
     0
 10
484.09444097411591
 20
1127.1271221076579
 30
0.0
 11
761.53169490730954
 21
1127.1271221076579
 31
0.0
  0
SOLID
  5
144
  8
0
 62
     0
 10
484.09444097411591
 20
1127.5437887743251
 30
0.0
 11
484.09444097411591
 21
1126.7104554409909
 31
0.0
 12
481.59444097411603
 22
1127.1271221076579
 32
0.0
 13
481.59444097411603
 23
1127.1271221076579
 33
0.0
  0
SOLID
  5
145
  8
0
 62
     0
 10
761.53169490730954
 20
1127.5437887743251
 30
0.0
 11
761.53169490730954
 21
1126.7104554409909
 31
0.0
 12
764.03169490730954
 22
1127.1271221076579
 32
0.0
 13
764.03169490730954
 23
1127.1271221076579
 33
0.0
  0
INSERT
  5
146
  8
0
  2
*U7
 10
0.0
 20
0.0
 30
0.0
  0
POINT
  5
147
  8
DEFPOINTS
 62
     0
 10
481.59444097411603
 20
1153.572530692579
 30
0.0
  0
POINT
  5
148
  8
DEFPOINTS
 62
     0
 10
764.03169490730954
 20
1159.1921473237919
 30
0.0
  0
POINT
  5
149
  8
DEFPOINTS
 62
     0
 10
764.03169490730954
 20
1127.1271221076579
 30
0.0
  0
ENDBLK
  5
13F
  8
0
  0
BLOCK
  8
0
  2
*U7
 70
     1
 10
0.0
 20
0.0
 30
0.0
  3
*U7
  1

  0
TEXT
  5
3A0
  8
0
 62
     0
 10
616.56306794071293
 20
1128.1985506790861
 30
0.0
 40
2.5
  1
282,44
  0
ENDBLK
  5
3A2
  8
0
  0
BLOCK
  8
0
  2
*D8
 70
     1
 10
0.0
 20
0.0
 30
0.0
  3
*D8
  1

  0
LINE
  5
15C
  8
0
 62
     0
 10
366.17418302202998
 20
1082.714752157327
 30
0.0
 11
278.48561944788338
 21
1082.714752157327
 31
0.0
  0
LINE
  5
15D
  8
0
 62
     0
 10
332.8990576774458
 20
797.71475215732619
 30
0.0
 11
278.48561944788338
 21
797.71475215732619
 31
0.0
  0
LINE
  5
15E
  8
0
 62
     0
 10
279.73561944788338
 20
1080.214752157327
 30
0.0
 11
279.73561944788338
 21
800.21475215732585
 31
0.0
  0
SOLID
  5
15F
  8
0
 62
     0
 10
279.31895278121681
 20
1080.214752157327
 30
0.0
 11
280.15228611455018
 21
1080.214752157327
 31
0.0
 12
279.73561944788338
 22
1082.714752157327
 32
0.0
 13
279.73561944788338
 23
1082.714752157327
 33
0.0
  0
SOLID
  5
160
  8
0
 62
     0
 10
279.31895278121681
 20
800.21475215732585
 30
0.0
 11
280.15228611455012
 21
800.21475215732585
 31
0.0
 12
279.73561944788338
 22
797.71475215732619
 32
0.0
 13
279.73561944788338
 23
797.71475215732619
 33
0.0
  0
INSERT
  5
161
  8
0
  2
*U9
 10
0.0
 20
0.0
 30
0.0
  0
POINT
  5
162
  8
DEFPOINTS
 62
     0
 10
366.79918302202981
 20
1082.714752157327
 30
0.0
  0
POINT
  5
163
  8
DEFPOINTS
 62
     0
 10
333.52405767744602
 20
797.71475215732619
 30
0.0
  0
POINT
  5
164
  8
DEFPOINTS
 62
     0
 10
279.73561944788338
 20
797.71475215732619
 30
0.0
  0
ENDBLK
  5
15A
  8
0
  0
BLOCK
  8
0
  2
*U9
 70
     1
 10
0.0
 20
0.0
 30
0.0
  3
*U9
  1

  0
TEXT
  5
3A4
  8
0
 62
     0
 10
279.11061944788332
 20
937.00046644304086
 30
0.0
 40
2.5
  1
285
 50
90.0
  0
ENDBLK
  5
3A6
  8
0
  0
BLOCK
  8
0
  2
*D10
 70
     1
 10
0.0
 20
0.0
 30
0.0
  3
*D10
  1

  0
LINE
  5
180
  8
0
 62
     0
 10
544.59444097411586
 20
818.83975215732607
 30
0.0
 11
544.59444097411586
 21
872.89625975651961
 31
0.0
  0
LINE
  5
181
  8
0
 62
     0
 10
744.59444097411586
 20
818.83975215732676
 30
0.0
 11
744.59444097411586
 21
872.89625975651961
 31
0.0
  0
LINE
  5
182
  8
0
 62
     0
 10
547.09444097411586
 20
871.6462597565195
 30
0.0
 11
742.09444097411586
 21
871.6462597565195
 31
0.0
  0
SOLID
  5
183
  8
0
 62
     0
 10
547.09444097411586
 20
872.06292642318613
 30
0.0
 11
547.09444097411586
 21
871.22959308985298
 31
0.0
 12
544.59444097411586
 22
871.6462597565195
 32
0.0
 13
544.59444097411586
 23
871.6462597565195
 33
0.0
  0
SOLID
  5
184
  8
0
 62
     0
 10
742.09444097411586
 20
872.06292642318613
 30
0.0
 11
742.09444097411586
 21
871.22959308985298
 31
0.0
 12
744.59444097411586
 22
871.6462597565195
 32
0.0
 13
744.59444097411586
 23
871.6462597565195
 33
0.0
  0
INSERT
  5
185
  8
0
  2
*U11
 10
0.0
 20
0.0
 30
0.0
  0
POINT
  5
186
  8
DEFPOINTS
 62
     0
 10
544.59444097411586
 20
818.21475215732653
 30
0.0
  0
POINT
  5
187
  8
DEFPOINTS
 62
     0
 10
744.59444097411586
 20
818.21475215732653
 30
0.0
  0
POINT
  5
188
  8
DEFPOINTS
 62
     0
 10
744.59444097411586
 20
871.6462597565195
 30
0.0
  0
ENDBLK
  5
17E
  8
0
  0
BLOCK
  8
0
  2
*U11
 70
     1
 10
0.0
 20
0.0
 30
0.0
  3
*U11
  1

  0
TEXT
  5
3A8
  8
0
 62
     0
 10
641.38015525983008
 20
872.27125975651961
 30
0.0
 40
2.5
  1
200
  0
ENDBLK
  5
3AA
  8
0
  0
BLOCK
  8
0
  2
*D12
 70
     1
 10
0.0
 20
0.0
 30
0.0
  3
*D12
  1

  0
LINE
  5
198
  8
0
 62
     0
 10
546.96944097411586
 20
1065.2147521573261
 30
0.0
 11
518.63020701667392
 21
1065.2147521573261
 31
0.0
  0
LINE
  5
199
  8
0
 62
     0
 10
546.96944097411586
 20
815.21475215732653
 30
0.0
 11
518.63020701667392
 21
815.21475215732653
 31
0.0
  0
LINE
  5
19A
  8
0
 62
     0
 10
519.88020701667392
 20
1062.7147521573261
 30
0.0
 11
519.88020701667392
 21
817.71475215732664
 31
0.0
  0
SOLID
  5
19B
  8
0
 62
     0
 10
519.46354035000729
 20
1062.7147521573261
 30
0.0
 11
520.29687368334055
 21
1062.7147521573261
 31
0.0
 12
519.88020701667392
 22
1065.2147521573261
 32
0.0
 13
519.88020701667392
 23
1065.2147521573261
 33
0.0
  0
SOLID
  5
19C
  8
0
 62
     0
 10
519.46354035000729
 20
817.71475215732664
 30
0.0
 11
520.29687368334055
 21
817.71475215732664
 31
0.0
 12
519.88020701667392
 22
815.21475215732653
 32
0.0
 13
519.88020701667392
 23
815.21475215732653
 33
0.0
  0
INSERT
  5
19D
  8
0
  2
*U13
 10
0.0
 20
0.0
 30
0.0
  0
POINT
  5
19E
  8
DEFPOINTS
 62
     0
 10
547.59444097411586
 20
1065.2147521573261
 30
0.0
  0
POINT
  5
19F
  8
DEFPOINTS
 62
     0
 10
547.59444097411586
 20
815.21475215732653
 30
0.0
  0
POINT
  5
1A0
  8
DEFPOINTS
 62
     0
 10
519.88020701667392
 20
815.21475215732653
 30
0.0
  0
ENDBLK
  5
196
  8
0
  0
BLOCK
  8
0
  2
*U13
 70
     1
 10
0.0
 20
0.0
 30
0.0
  3
*U13
  1

  0
TEXT
  5
3AC
  8
0
 62
     0
 10
519.25520701667369
 20
937.00046644304086
 30
0.0
 40
2.5
  1
250
 50
90.0
  0
ENDBLK
  5
3AE
  8
0
  0
BLOCK
  8
0
  2
*D14
 70
     1
 10
0.0
 20
0.0
 30
0.0
  3
*D14
  1

  0
LINE
  5
1B0
  8
0
 62
     0
 10
474.5944409741158
 20
1082.339752157327
 30
0.0
 11
474.5944409741158
 21
1113.1811352303521
 31
0.0
  0
LINE
  5
1B1
  8
0
 62
     0
 10
771.09444097411563
 20
1082.3397521573261
 30
0.0
 11
771.09444097411563
 21
1113.1811352303521
 31
0.0
  0
LINE
  5
1B2
  8
0
 62
     0
 10
477.09444097411603
 20
1111.9311352303521
 30
0.0
 11
768.59444097411563
 21
1111.9311352303521
 31
0.0
  0
SOLID
  5
1B3
  8
0
 62
     0
 10
477.09444097411603
 20
1112.3478018970191
 30
0.0
 11
477.09444097411603
 21
1111.514468563686
 31
0.0
 12
474.5944409741158
 22
1111.9311352303521
 32
0.0
 13
474.5944409741158
 23
1111.9311352303521
 33
0.0
  0
SOLID
  5
1B4
  8
0
 62
     0
 10
768.59444097411563
 20
1112.3478018970191
 30
0.0
 11
768.59444097411563
 21
1111.514468563686
 31
0.0
 12
771.09444097411563
 22
1111.9311352303521
 32
0.0
 13
771.09444097411563
 23
1111.9311352303521
 33
0.0
  0
INSERT
  5
1B5
  8
0
  2
*U15
 10
0.0
 20
0.0
 30
0.0
  0
POINT
  5
1B6
  8
DEFPOINTS
 62
     0
 10
474.5944409741158
 20
1081.714752157327
 30
0.0
  0
POINT
  5
1B7
  8
DEFPOINTS
 62
     0
 10
771.09444097411563
 20
1081.7147521573261
 30
0.0
  0
POINT
  5
1B8
  8
DEFPOINTS
 62
     0
 10
771.09444097411563
 20
1111.9311352303521
 30
0.0
  0
ENDBLK
  5
1AE
  8
0
  0
BLOCK
  8
0
  2
*U15
 70
     1
 10
0.0
 20
0.0
 30
0.0
  3
*U15
  1

  0
TEXT
  5
3B0
  8
0
 62
     0
 10
617.84444097411563
 20
1113.002563801781
 30
0.0
 40
2.5
  1
296,5
  0
ENDBLK
  5
3B2
  8
0
  0
BLOCK
  8
0
  2
*D16
 70
     1
 10
0.0
 20
0.0
 30
0.0
  3
*D16
  1

  0
LINE
  5
1C8
  8
0
 62
     0
 10
763.71944097411563
 20
1089.7147521573261
 30
0.0
 11
833.26885012310504
 21
1089.7147521573261
 31
0.0
  0
LINE
  5
1C9
  8
0
 62
     0
 10
763.71944097411608
 20
790.71475215732653
 30
0.0
 11
833.26885012310504
 21
790.71475215732619
 31
0.0
  0
LINE
  5
1CA
  8
0
 62
     0
 10
832.01885012310515
 20
1087.2147521573261
 30
0.0
 11
832.01885012310515
 21
793.21475215732619
 31
0.0
  0
SOLID
  5
1CB
  8
0
 62
     0
 10
831.60218345643841
 20
1087.2147521573261
 30
0.0
 11
832.43551678977155
 21
1087.2147521573261
 31
0.0
 12
832.01885012310515
 22
1089.7147521573261
 32
0.0
 13
832.01885012310515
 23
1089.7147521573261
 33
0.0
  0
SOLID
  5
1CC
  8
0
 62
     0
 10
831.60218345643841
 20
793.21475215732619
 30
0.0
 11
832.43551678977155
 21
793.21475215732619
 31
0.0
 12
832.01885012310515
 22
790.71475215732619
 32
0.0
 13
832.01885012310515
 23
790.71475215732619
 33
0.0
  0
INSERT
  5
1CD
  8
0
  2
*U17
 10
0.0
 20
0.0
 30
0.0
  0
POINT
  5
1CE
  8
DEFPOINTS
 62
     0
 10
763.09444097411563
 20
1089.7147521573261
 30
0.0
  0
POINT
  5
1CF
  8
DEFPOINTS
 62
     0
 10
763.09444097411563
 20
790.71475215732653
 30
0.0
  0
POINT
  5
1D0
  8
DEFPOINTS
 62
     0
 10
832.01885012310515
 20
790.71475215732619
 30
0.0
  0
ENDBLK
  5
1C6
  8
0
  0
BLOCK
  8
0
  2
*U17
 70
     1
 10
0.0
 20
0.0
 30
0.0
  3
*U17
  1

  0
TEXT
  5
3B4
  8
0
 62
     0
 10
831.39385012310458
 20
937.05999025256403
 30
0.0
 40
2.5
  1
299
 50
90.0
  0
ENDBLK
  5
3B6
  8
0
  0
BLOCK
  8
0
  2
*D18
 70
     1
 10
0.0
 20
0.0
 30
0.0
  3
*D18
  1

  0
LINE
  5
1E5
  8
0
 62
     0
 10
546.96944097411586
 20
1065.2147521573261
 30
0.0
 11
423.80770689453487
 21
1065.2147521573261
 31
0.0
  0
LINE
  5
1E6
  8
0
 62
     0
 10
546.96944097411563
 20
815.21475215732653
 30
0.0
 11
423.80770689453487
 21
815.21475215732653
 31
0.0
  0
LINE
  5
1E7
  8
0
 62
     0
 10
425.05770689453487
 20
1062.7147521573261
 30
0.0
 11
425.05770689453487
 21
817.71475215732664
 31
0.0
  0
SOLID
  5
1E8
  8
0
 62
     0
 10
424.6410402278683
 20
1062.7147521573261
 30
0.0
 11
425.47437356120167
 21
1062.7147521573261
 31
0.0
 12
425.05770689453487
 22
1065.2147521573261
 32
0.0
 13
425.05770689453487
 23
1065.2147521573261
 33
0.0
  0
SOLID
  5
1E9
  8
0
 62
     0
 10
424.64104022786819
 20
817.71475215732664
 30
0.0
 11
425.47437356120162
 21
817.71475215732664
 31
0.0
 12
425.05770689453487
 22
815.21475215732653
 32
0.0
 13
425.05770689453487
 23
815.21475215732653
 33
0.0
  0
INSERT
  5
1EA
  8
0
  2
*U19
 10
0.0
 20
0.0
 30
0.0
  0
POINT
  5
1EB
  8
DEFPOINTS
 62
     0
 10
547.59444097411586
 20
1065.2147521573261
 30
0.0
  0
POINT
  5
1EC
  8
DEFPOINTS
 62
     0
 10
547.59444097411563
 20
815.21475215732653
 30
0.0
  0
POINT
  5
1ED
  8
DEFPOINTS
 62
     0
 10
425.05770689453487
 20
815.21475215732653
 30
0.0
  0
ENDBLK
  5
1E3
  8
0
  0
BLOCK
  8
0
  2
*U19
 70
     1
 10
0.0
 20
0.0
 30
0.0
  3
*U19
  1

  0
TEXT
  5
3B8
  8
0
 62
     0
 10
424.43270689453482
 20
937.00046644304075
 30
0.0
 40
2.5
  1
250
 50
90.0
  0
ENDBLK
  5
3BA
  8
0
  0
BLOCK
  8
0
  2
*D20
 70
     1
 10
0.0
 20
0.0
 30
0.0
  3
*D20
  1

  0
LINE
  5
205
  8
0
 62
     0
 10
810.48799634419697
 20
1068.7147521573261
 30
0.0
 11
853.92832620686465
 21
1068.7147521573261
 31
0.0
  0
LINE
  5
206
  8
0
 62
     0
 10
822.9708904405137
 20
811.71475215732676
 30
0.0
 11
853.92832620686465
 21
811.71475215732676
 31
0.0
  0
LINE
  5
207
  8
0
 62
     0
 10
852.67832620686454
 20
1066.2147521573261
 30
0.0
 11
852.67832620686454
 21
814.21475215732676
 31
0.0
  0
SOLID
  5
208
  8
0
 62
     0
 10
852.26165954019814
 20
1066.2147521573261
 30
0.0
 11
853.0949928735314
 21
1066.2147521573261
 31
0.0
 12
852.67832620686454
 22
1068.7147521573261
 32
0.0
 13
852.67832620686454
 23
1068.7147521573261
 33
0.0
  0
SOLID
  5
209
  8
0
 62
     0
 10
852.26165954019814
 20
814.21475215732676
 30
0.0
 11
853.0949928735314
 21
814.21475215732676
 31
0.0
 12
852.67832620686454
 22
811.71475215732676
 32
0.0
 13
852.67832620686454
 23
811.71475215732676
 33
0.0
  0
INSERT
  5
20A
  8
0
  2
*U21
 10
0.0
 20
0.0
 30
0.0
  0
POINT
  5
20B
  8
DEFPOINTS
 62
     0
 10
809.8629963441972
 20
1068.7147521573261
 30
0.0
  0
POINT
  5
20C
  8
DEFPOINTS
 62
     0
 10
822.34589044051381
 20
811.71475215732676
 30
0.0
  0
POINT
  5
20D
  8
DEFPOINTS
 62
     0
 10
852.67832620686454
 20
811.71475215732676
 30
0.0
  0
ENDBLK
  5
203
  8
0
  0
BLOCK
  8
0
  2
*U21
 70
     1
 10
0.0
 20
0.0
 30
0.0
  3
*U21
  1

  0
TEXT
  5
3BC
  8
0
 62
     0
 10
852.05332620686465
 20
937.00046644304086
 30
0.0
 40
2.5
  1
257
 50
90.0
  0
ENDBLK
  5
3BE
  8
0
  0
BLOCK
  8
0
  2
*D22
 70
     1
 10
0.0
 20
0.0
 30
0.0
  3
*D22
  1

  0
LINE
  5
22C
  8
0
 62
     0
 10
356.46135024176812
 20
1068.4647521573261
 30
0.0
 11
280.6534125994142
 21
1068.4647521573261
 31
0.0
  0
LINE
  5
22D
  8
0
 62
     0
 10
369.88687450710358
 20
811.96475215732653
 30
0.0
 11
280.65341259941408
 21
811.96475215732653
 31
0.0
  0
LINE
  5
22E
  8
0
 62
     0
 10
281.9034125994142
 20
1065.9647521573261
 30
0.0
 11
281.90341259941408
 21
814.46475215732676
 31
0.0
  0
SOLID
  5
22F
  8
0
 62
     0
 10
281.48674593274751
 20
1065.9647521573261
 30
0.0
 11
282.32007926608088
 21
1065.9647521573261
 31
0.0
 12
281.9034125994142
 22
1068.4647521573261
 32
0.0
 13
281.9034125994142
 23
1068.4647521573261
 33
0.0
  0
SOLID
  5
230
  8
0
 62
     0
 10
281.48674593274751
 20
814.46475215732676
 30
0.0
 11
282.32007926608082
 21
814.46475215732676
 31
0.0
 12
281.90341259941408
 22
811.96475215732653
 32
0.0
 13
281.90341259941408
 23
811.96475215732653
 33
0.0
  0
INSERT
  5
231
  8
0
  2
*U23
 10
0.0
 20
0.0
 30
0.0
  0
POINT
  5
232
  8
DEFPOINTS
 62
     0
 10
357.086350241768
 20
1068.4647521573261
 30
0.0
  0
POINT
  5
233
  8
DEFPOINTS
 62
     0
 10
370.5118745071037
 20
811.96475215732653
 30
0.0
  0
POINT
  5
234
  8
DEFPOINTS
 62
     0
 10
281.90341259941408
 20
811.96475215732653
 30
0.0
  0
ENDBLK
  5
22A
  8
0
  0
BLOCK
  8
0
  2
*U23
 70
     1
 10
0.0
 20
0.0
 30
0.0
  3
*U23
  1

  0
TEXT
  5
3C0
  8
0
 62
     0
 10
280.83198402798558
 20
935.2147521573263
 30
0.0
 40
2.5
  1
256,5
 50
90.0
  0
ENDBLK
  5
3C2
  8
0
  0
BLOCK
  8
0
  2
*D24
 70
     1
 10
0.0
 20
0.0
 30
0.0
  3
*D24
  1

  0
LINE
  5
244
  8
0
 62
     0
 10
544.59444097411597
 20
1062.8397521573261
 30
0.0
 11
544.59444097411597
 21
1119.1868706044279
 31
0.0
  0
LINE
  5
245
  8
0
 62
     0
 10
744.59444097411586
 20
1062.8397521573261
 30
0.0
 11
744.59444097411586
 21
1119.1868706044279
 31
0.0
  0
LINE
  5
246
  8
0
 62
     0
 10
547.09444097411586
 20
1117.9368706044279
 30
0.0
 11
742.09444097411586
 21
1117.9368706044279
 31
0.0
  0
SOLID
  5
247
  8
0
 62
     0
 10
547.09444097411586
 20
1118.3535372710951
 30
0.0
 11
547.09444097411586
 21
1117.52020393776
 31
0.0
 12
544.59444097411597
 22
1117.9368706044279
 32
0.0
 13
544.59444097411597
 23
1117.9368706044279
 33
0.0
  0
SOLID
  5
248
  8
0
 62
     0
 10
742.09444097411586
 20
1118.3535372710951
 30
0.0
 11
742.09444097411586
 21
1117.52020393776
 31
0.0
 12
744.59444097411586
 22
1117.9368706044279
 32
0.0
 13
744.59444097411586
 23
1117.9368706044279
 33
0.0
  0
INSERT
  5
249
  8
0
  2
*U25
 10
0.0
 20
0.0
 30
0.0
  0
POINT
  5
24A
  8
DEFPOINTS
 62
     0
 10
544.59444097411597
 20
1062.2147521573261
 30
0.0
  0
POINT
  5
24B
  8
DEFPOINTS
 62
     0
 10
744.59444097411586
 20
1062.2147521573261
 30
0.0
  0
POINT
  5
24C
  8
DEFPOINTS
 62
     0
 10
744.59444097411586
 20
1117.9368706044279
 30
0.0
  0
ENDBLK
  5
242
  8
0
  0
BLOCK
  8
0
  2
*U25
 70
     1
 10
0.0
 20
0.0
 30
0.0
  3
*U25
  1

  0
TEXT
  5
3C4
  8
0
 62
     0
 10
641.38015525983008
 20
1118.5618706044279
 30
0.0
 40
2.5
  1
200
  0
ENDBLK
  5
3C6
  8
0
  0
BLOCK
  8
0
  2
*D26
 70
     1
 10
0.0
 20
0.0
 30
0.0
  3
*D26
  1

  0
LINE
  5
264
  8
0
 62
     0
 10
540.79444097411567
 20
1199.379529808403
 30
0.0
 11
540.79444097411567
 21
1274.5945524972331
 31
0.0
  0
LINE
  5
265
  8
0
 62
     0
 10
748.39444097411604
 20
1236.0306088862819
 30
0.0
 11
748.39444097411604
 21
1274.5945524972331
 31
0.0
  0
LINE
  5
266
  8
0
 62
     0
 10
543.2944409741159
 20
1273.3445524972331
 30
0.0
 11
745.89444097411604
 21
1273.3445524972331
 31
0.0
  0
SOLID
  5
267
  8
0
 62
     0
 10
543.2944409741159
 20
1273.7612191639
 30
0.0
 11
543.2944409741159
 21
1272.9278858305661
 31
0.0
 12
540.79444097411567
 22
1273.3445524972331
 32
0.0
 13
540.79444097411567
 23
1273.3445524972331
 33
0.0
  0
SOLID
  5
268
  8
0
 62
     0
 10
745.89444097411604
 20
1273.7612191639
 30
0.0
 11
745.89444097411604
 21
1272.9278858305661
 31
0.0
 12
748.39444097411604
 22
1273.3445524972331
 32
0.0
 13
748.39444097411604
 23
1273.3445524972331
 33
0.0
  0
INSERT
  5
269
  8
0
  2
*U27
 10
0.0
 20
0.0
 30
0.0
  0
POINT
  5
26A
  8
DEFPOINTS
 62
     0
 10
540.79444097411567
 20
1198.754529808403
 30
0.0
  0
POINT
  5
26B
  8
DEFPOINTS
 62
     0
 10
748.39444097411604
 20
1235.4056088862819
 30
0.0
  0
POINT
  5
26C
  8
DEFPOINTS
 62
     0
 10
748.39444097411604
 20
1273.3445524972331
 30
0.0
  0
ENDBLK
  5
262
  8
0
  0
BLOCK
  8
0
  2
*U27
 70
     1
 10
0.0
 20
0.0
 30
0.0
  3
*U27
  1

  0
TEXT
  5
3C8
  8
0
 62
     0
 10
639.65396478363994
 20
1274.415981068661
 30
0.0
 40
2.5
  1
207,6
  0
ENDBLK
  5
3CA
  8
0
  0
BLOCK
  8
0
  2
*D28
 70
     1
 10
0.0
 20
0.0
 30
0.0
  3
*D28
  1

  0
LINE
  5
285
  8
0
 62
     0
 10
540.79444097411567
 20
1069.0897521573261
 30
0.0
 11
540.79444097411567
 21
1129.41628514029
 31
0.0
  0
LINE
  5
286
  8
0
 62
     0
 10
748.39444097411604
 20
1069.0897521573261
 30
0.0
 11
748.39444097411604
 21
1129.41628514029
 31
0.0
  0
LINE
  5
287
  8
0
 62
     0
 10
543.2944409741159
 20
1128.1662851402909
 30
0.0
 11
745.89444097411604
 21
1128.1662851402909
 31
0.0
  0
SOLID
  5
288
  8
0
 62
     0
 10
543.2944409741159
 20
1128.5829518069579
 30
0.0
 11
543.2944409741159
 21
1127.749618473624
 31
0.0
 12
540.79444097411567
 22
1128.1662851402909
 32
0.0
 13
540.79444097411567
 23
1128.1662851402909
 33
0.0
  0
SOLID
  5
289
  8
0
 62
     0
 10
745.89444097411604
 20
1128.5829518069579
 30
0.0
 11
745.89444097411604
 21
1127.749618473624
 31
0.0
 12
748.39444097411604
 22
1128.1662851402909
 32
0.0
 13
748.39444097411604
 23
1128.1662851402909
 33
0.0
  0
INSERT
  5
28A
  8
0
  2
*U29
 10
0.0
 20
0.0
 30
0.0
  0
POINT
  5
28B
  8
DEFPOINTS
 62
     0
 10
540.79444097411567
 20
1068.4647521573261
 30
0.0
  0
POINT
  5
28C
  8
DEFPOINTS
 62
     0
 10
748.39444097411604
 20
1068.4647521573261
 30
0.0
  0
POINT
  5
28D
  8
DEFPOINTS
 62
     0
 10
748.39444097411604
 20
1128.1662851402909
 30
0.0
  0
ENDBLK
  5
283
  8
0
  0
BLOCK
  8
0
  2
*U29
 70
     1
 10
0.0
 20
0.0
 30
0.0
  3
*U29
  1

  0
TEXT
  5
3CC
  8
0
 62
     0
 10
639.65396478363994
 20
1129.237713711718
 30
0.0
 40
2.5
  1
207,6
  0
ENDBLK
  5
3CE
  8
0
  0
BLOCK
  8
0
  2
*D30
 70
     1
 10
0.0
 20
0.0
 30
0.0
  3
*D30
  1

  0
LINE
  5
29D
  8
0
 62
     0
 10
540.1694409741159
 20
1068.4647521573261
 30
0.0
 11
433.46709640324571
 21
1068.4647521573261
 31
0.0
  0
LINE
  5
29E
  8
0
 62
     0
 10
540.1694409741159
 20
811.96475215732653
 30
0.0
 11
433.46709640324571
 21
811.96475215732653
 31
0.0
  0
LINE
  5
29F
  8
0
 62
     0
 10
434.71709640324559
 20
1065.9647521573261
 30
0.0
 11
434.71709640324559
 21
814.46475215732676
 31
0.0
  0
SOLID
  5
2A0
  8
0
 62
     0
 10
434.30042973657908
 20
1065.9647521573261
 30
0.0
 11
435.13376306991228
 21
1065.9647521573261
 31
0.0
 12
434.71709640324559
 22
1068.4647521573261
 32
0.0
 13
434.71709640324559
 23
1068.4647521573261
 33
0.0
  0
SOLID
  5
2A1
  8
0
 62
     0
 10
434.30042973657891
 20
814.46475215732676
 30
0.0
 11
435.13376306991228
 21
814.46475215732676
 31
0.0
 12
434.71709640324559
 22
811.96475215732653
 32
0.0
 13
434.71709640324559
 23
811.96475215732653
 33
0.0
  0
INSERT
  5
2A2
  8
0
  2
*U31
 10
0.0
 20
0.0
 30
0.0
  0
POINT
  5
2A3
  8
DEFPOINTS
 62
     0
 10
540.79444097411567
 20
1068.4647521573261
 30
0.0
  0
POINT
  5
2A4
  8
DEFPOINTS
 62
     0
 10
540.79444097411567
 20
811.96475215732653
 30
0.0
  0
POINT
  5
2A5
  8
DEFPOINTS
 62
     0
 10
434.71709640324559
 20
811.96475215732653
 30
0.0
  0
ENDBLK
  5
29B
  8
0
  0
BLOCK
  8
0
  2
*U31
 70
     1
 10
0.0
 20
0.0
 30
0.0
  3
*U31
  1

  0
TEXT
  5
3D0
  8
0
 62
     0
 10
433.6456678318167
 20
935.2147521573263
 30
0.0
 40
2.5
  1
256,5
 50
90.0
  0
ENDBLK
  5
3D2
  8
0
  0
BLOCK
  8
0
  2
*D32
 70
     1
 10
0.0
 20
0.0
 30
0.0
  3
*D32
  1

  0
LINE
  5
33C
  8
0
 62
     0
 10
263.0444409741163
 20
1034.8897521573269
 30
0.0
 11
263.0444409741163
 21
1056.4969763965209
 31
0.0
  0
LINE
  5
33D
  8
0
 62
     0
 10
562.04444097411579
 20
1034.8897521573269
 30
0.0
 11
562.04444097411579
 21
1056.4969763965209
 31
0.0
  0
LINE
  5
33E
  8
0
 62
     0
 10
267.54444097411618
 20
1055.2469763965209
 30
0.0
 11
557.54444097411579
 21
1055.2469763965209
 31
0.0
  0
SOLID
  5
33F
  8
0
 62
     0
 10
267.54444097411618
 20
1055.9969763965209
 30
0.0
 11
267.54444097411618
 21
1054.4969763965209
 31
0.0
 12
263.0444409741163
 22
1055.2469763965209
 32
0.0
 13
263.0444409741163
 23
1055.2469763965209
 33
0.0
  0
SOLID
  5
340
  8
0
 62
     0
 10
557.54444097411579
 20
1055.9969763965209
 30
0.0
 11
557.54444097411579
 21
1054.4969763965209
 31
0.0
 12
562.04444097411579
 22
1055.2469763965209
 32
0.0
 13
562.04444097411579
 23
1055.2469763965209
 33
0.0
  0
INSERT
  5
341
  8
0
  2
*U33
 10
0.0
 20
0.0
 30
0.0
  0
POINT
  5
342
  8
DEFPOINTS
 62
     0
 10
263.0444409741163
 20
1034.264752157326
 30
0.0
  0
POINT
  5
343
  8
DEFPOINTS
 62
     0
 10
562.04444097411579
 20
1034.264752157326
 30
0.0
  0
POINT
  5
344
  8
DEFPOINTS
 62
     0
 10
562.04444097411579
 20
1055.2469763965209
 30
0.0
  0
ENDBLK
  5
30D
  8
0
  0
BLOCK
  8
0
  2
*U33
 70
     1
 10
0.0
 20
0.0
 30
0.0
  3
*U33
  1

  0
TEXT
  5
412
  8
0
 62
     0
 10
404.9730124026874
 20
1055.87197639652
 30
0.0
 40
6.0
  1
299
  0
ENDBLK
  5
414
  8
0
  0
BLOCK
  8
0
  2
*D34
 70
     1
 10
0.0
 20
0.0
 30
0.0
  3
*D34
  1

  0
LINE
  5
345
  8
0
 62
     0
 10
554.66944097411567
 20
1042.264752157326
 30
0.0
 11
577.44455081469528
 21
1042.264752157326
 31
0.0
  0
LINE
  5
346
  8
0
 62
     0
 10
554.66944097411601
 20
745.76475215732682
 30
0.0
 11
577.44455081469516
 21
745.76475215732682
 31
0.0
  0
LINE
  5
347
  8
0
 62
     0
 10
576.19455081469505
 20
1037.764752157326
 30
0.0
 11
576.19455081469505
 21
750.26475215732682
 31
0.0
  0
SOLID
  5
348
  8
0
 62
     0
 10
575.44455081469505
 20
1037.764752157326
 30
0.0
 11
576.94455081469505
 21
1037.764752157326
 31
0.0
 12
576.19455081469505
 22
1042.264752157326
 32
0.0
 13
576.19455081469505
 23
1042.264752157326
 33
0.0
  0
SOLID
  5
349
  8
0
 62
     0
 10
575.44455081469505
 20
750.26475215732682
 30
0.0
 11
576.94455081469505
 21
750.26475215732682
 31
0.0
 12
576.19455081469505
 22
745.76475215732682
 32
0.0
 13
576.19455081469505
 23
745.76475215732682
 33
0.0
  0
INSERT
  5
34A
  8
0
  2
*U35
 10
0.0
 20
0.0
 30
0.0
  0
POINT
  5
34B
  8
DEFPOINTS
 62
     0
 10
554.04444097411579
 20
1042.264752157326
 30
0.0
  0
POINT
  5
34C
  8
DEFPOINTS
 62
     0
 10
554.04444097411601
 20
745.76475215732682
 30
0.0
  0
POINT
  5
34D
  8
DEFPOINTS
 62
     0
 10
576.19455081469505
 20
745.76475215732682
 30
0.0
  0
ENDBLK
  5
325
  8
0
  0
BLOCK
  8
0
  2
*U35
 70
     1
 10
0.0
 20
0.0
 30
0.0
  3
*U35
  1

  0
TEXT
  5
416
  8
0
 62
     0
 10
574.42669367183782
 20
882.01475215732705
 30
0.0
 40
6.0
  1
296,5
 50
90.0
  0
ENDBLK
  5
418
  8
0
  0
BLOCK
  8
0
  2
*D36
 70
     1
 10
0.0
 20
0.0
 30
0.0
  3
*D36
  1

  0
LINE
  5
35A
  8
0
 62
     0
 10
253.26066426350039
 20
731.8148139818561
 30
0.0
 11
263.1755132260555
 21
744.05239013278242
 31
0.0
  0
INSERT
  5
35B
  8
0
  2
*U37
 10
0.0
 20
0.0
 30
0.0
  0
LINE
  5
35C
  8
0
 62
     0
 10
271.0444409741151
 20
753.76475215732739
 30
0.0
 11
266.00832721535693
 21
747.54884046161851
 31
0.0
  0
SOLID
  5
35D
  8
0
 62
     0
 10
262.59277150458291
 20
744.524525797666
 30
0.0
 11
263.7582549475282
 21
743.58025446789884
 31
0.0
 12
266.00832721535693
 22
747.54884046161851
 32
0.0
 13
266.00832721535693
 23
747.54884046161851
 33
0.0
  0
POINT
  5
35E
  8
DEFPOINTS
 62
     0
 10
266.00832721535693
 20
747.54884046161851
 30
0.0
  0
POINT
  5
35F
  8
DEFPOINTS
 62
     0
 10
271.0444409741151
 20
753.76475215732739
 30
0.0
  0
ENDBLK
  5
352
  8
0
  0
BLOCK
  8
0
  2
*U37
 70
     1
 10
0.0
 20
0.0
 30
0.0
  3
*U37
  1

  0
TEXT
  5
41A
  8
0
 62
     0
 10
253.1684925496761
 20
732.69387847048642
 30
0.0
 40
6.0
  1
R8
 50
50.985708355596771
  0
ENDBLK
  5
41C
  8
0
  0
BLOCK
  8
0
  2
*D38
 70
     1
 10
0.0
 20
0.0
 30
0.0
  3
*D38
  1

  0
LINE
  5
36C
  8
0
 62
     0
 10
243.03151442503099
 20
1052.5734604051891
 30
0.0
 11
260.58104879511842
 21
1041.103423381219
 31
0.0
  0
INSERT
  5
36D
  8
0
  2
*U39
 10
0.0
 20
0.0
 30
0.0
  0
LINE
  5
36E
  8
0
 62
     0
 10
271.0444409741155
 20
1034.264752157326
 30
0.0
 11
264.34786997955752
 21
1038.6415017406171
 31
0.0
  0
SOLID
  5
36F
  8
0
 62
     0
 10
260.99136906855199
 20
1041.7312269119579
 30
0.0
 11
260.17072852168491
 21
1040.475619850479
 31
0.0
 12
264.34786997955752
 22
1038.6415017406171
 32
0.0
 13
264.34786997955752
 23
1038.6415017406171
 33
0.0
  0
POINT
  5
370
  8
DEFPOINTS
 62
     0
 10
264.34786997955752
 20
1038.6415017406171
 30
0.0
  0
POINT
  5
371
  8
DEFPOINTS
 62
     0
 10
271.0444409741155
 20
1034.264752157326
 30
0.0
  0
ENDBLK
  5
364
  8
0
  0
BLOCK
  8
0
  2
*U39
 70
     1
 10
0.0
 20
0.0
 30
0.0
  3
*U39
  1

  0
TEXT
  5
41E
  8
0
 62
     0
 10
243.89661759517551
 20
1052.7546964529449
 30
0.0
 40
6.0
  1
R8
 50
326.83214393582949
  0
ENDBLK
  5
420
  8
0
  0
BLOCK
  8
0
  2
*D40
 70
     1
 10
0.0
 20
0.0
 30
0.0
  3
*D40
  1

  0
LINE
  5
B98
  8
0
 62
     0
 10
579.14684754824009
 20
1051.178476553257
 30
0.0
 11
560.46227299942325
 21
1038.793258817014
 31
0.0
  0
INSERT
  5
B99
  8
0
  2
*U67
 10
0.0
 20
0.0
 30
0.0
  0
LINE
  5
B9A
  8
0
 62
     0
 10
555.04444097411488
 20
1035.2020060905199
 30
0.0
 11
556.71146621267189
 21
1036.3070069294411
 31
0.0
  0
SOLID
  5
B9B
  8
0
 62
     0
 10
560.04789768482783
 20
1039.4183932814731
 30
0.0
 11
560.87664831401889
 21
1038.1681243525561
 31
0.0
 12
556.71146621267189
 22
1036.3070069294411
 32
0.0
 13
556.71146621267189
 23
1036.3070069294411
 33
0.0
  0
POINT
  5
B9C
  8
DEFPOINTS
 62
     0
 10
556.71146621267189
 20
1036.3070069294411
 30
0.0
  0
POINT
  5
B9D
  8
DEFPOINTS
 62
     0
 10
555.04444097411488
 20
1035.2020060905199
 30
0.0
  0
ENDBLK
  5
4F1
  8
0
  0
BLOCK
  8
0
  2
*D41
 70
     1
 10
0.0
 20
0.0
 30
0.0
  3
*D41
  1

  0
LINE
  5
F3D
  8
0
 62
     0
 10
412.54444097411539
 20
1035.8270060905211
 30
0.0
 11
412.54444097411539
 21
1046.802322526579
 31
0.0
  0
LINE
  5
F3E
  8
0
 62
     0
 10
555.04444097411488
 20
1035.827006090519
 30
0.0
 11
555.04444097411488
 21
1046.802322526579
 31
0.0
  0
LINE
  5
F3F
  8
0
 62
     0
 10
417.0444409741155
 20
1045.552322526579
 30
0.0
 11
550.54444097411488
 21
1045.552322526579
 31
0.0
  0
SOLID
  5
F40
  8
0
 62
     0
 10
417.0444409741155
 20
1046.302322526579
 30
0.0
 11
417.0444409741155
 21
1044.802322526579
 31
0.0
 12
412.54444097411539
 22
1045.552322526579
 32
0.0
 13
412.54444097411539
 23
1045.552322526579
 33
0.0
  0
SOLID
  5
F41
  8
0
 62
     0
 10
550.54444097411488
 20
1046.302322526579
 30
0.0
 11
550.54444097411488
 21
1044.802322526579
 31
0.0
 12
555.04444097411488
 22
1045.552322526579
 32
0.0
 13
555.04444097411488
 23
1045.552322526579
 33
0.0
  0
TEXT
  8
0
  40
10
  5
FC3
  62
0
  72
0
  71
0
 10
463.794
 20
1033.48
 30
0.000000
  1
142.5
  0
POINT
  5
F43
  8
DEFPOINTS
 62
     0
 10
412.54444097411539
 20
1035.2020060905211
 30
0.0
  0
POINT
  5
F44
  8
DEFPOINTS
 62
     0
 10
555.04444097411488
 20
1035.2020060905199
 30
0.0
  0
POINT
  5
F45
  8
DEFPOINTS
 62
     0
 10
555.04444097411488
 20
1045.552322526579
 30
0.0
  0
ENDBLK
  5
4FB
  8
0
  0
BLOCK
  8
0
  2
*D42
 70
     1
 10
0.0
 20
0.0
 30
0.0
  3
*D42
  1

  0
LINE
  5
F46
  8
0
 62
     0
 10
270.04444097411528
 20
1035.8270060905211
 30
0.0
 11
270.04444097411528
 21
1046.802322526579
 31
0.0
  0
LINE
  5
F47
  8
0
 62
     0
 10
412.54444097411539
 20
1035.8270060905211
 30
0.0
 11
412.54444097411539
 21
1046.802322526579
 31
0.0
  0
LINE
  5
F48
  8
0
 62
     0
 10
274.54444097411528
 20
1045.552322526579
 30
0.0
 11
408.04444097411539
 21
1045.552322526579
 31
0.0
  0
SOLID
  5
F49
  8
0
 62
     0
 10
274.54444097411528
 20
1046.302322526579
 30
0.0
 11
274.54444097411528
 21
1044.802322526579
 31
0.0
 12
270.04444097411528
 22
1045.552322526579
 32
0.0
 13
270.04444097411528
 23
1045.552322526579
 33
0.0
  0
SOLID
  5
F4A
  8
0
 62
     0
 10
408.04444097411539
 20
1046.302322526579
 30
0.0
 11
408.04444097411539
 21
1044.802322526579
 31
0.0
 12
412.54444097411539
 22
1045.552322526579
 32
0.0
 13
412.54444097411539
 23
1045.552322526579
 33
0.0
  0
TEXT
  8
0
  40
10
  5
FC4
  62
0
  72
0
  71
0
 10
321.294
 20
1033.48
 30
0.000000
  1
142.5
  0
POINT
  5
F4C
  8
DEFPOINTS
 62
     0
 10
270.04444097411528
 20
1035.2020060905211
 30
0.0
  0
POINT
  5
F4D
  8
DEFPOINTS
 62
     0
 10
412.54444097411539
 20
1035.2020060905211
 30
0.0
  0
POINT
  5
F4E
  8
DEFPOINTS
 62
     0
 10
412.54444097411539
 20
1045.552322526579
 30
0.0
  0
ENDBLK
  5
508
  8
0
  0
BLOCK
  8
0
  2
*D43
 70
     1
 10
0.0
 20
0.0
 30
0.0
  3
*D43
  1

  0
LINE
  5
516
  8
0
 62
     0
 10
269.42089359044979
 20
1035.203199958233
 30
0.0
 11
249.467187642536
 21
1035.203199958233
 31
0.0
  0
LINE
  5
517
  8
0
 62
     0
 10
269.41944097411528
 20
893.98475215732685
 30
0.0
 11
249.46718764253589
 21
893.98475215732697
 31
0.0
  0
LINE
  5
518
  8
0
 62
     0
 10
250.71718764253589
 20
1030.703199958233
 30
0.0
 11
250.71718764253589
 21
898.48475215732697
 31
0.0
  0
SOLID
  5
519
  8
0
 62
     0
 10
249.967187642536
 20
1030.703199958233
 30
0.0
 11
251.467187642536
 21
1030.703199958233
 31
0.0
 12
250.71718764253589
 22
1035.203199958233
 32
0.0
 13
250.71718764253589
 23
1035.203199958233
 33
0.0
  0
SOLID
  5
51A
  8
0
 62
     0
 10
249.96718764253589
 20
898.48475215732697
 30
0.0
 11
251.46718764253589
 21
898.48475215732697
 31
0.0
 12
250.71718764253589
 22
893.98475215732697
 32
0.0
 13
250.71718764253589
 23
893.98475215732697
 33
0.0
  0
INSERT
  5
51B
  8
0
  2
*U62
 10
0.0
 20
0.0
 30
0.0
  0
POINT
  5
51C
  8
DEFPOINTS
 62
     0
 10
270.04589359044991
 20
1035.203199958233
 30
0.0
  0
POINT
  5
51D
  8
DEFPOINTS
 62
     0
 10
270.04444097411528
 20
893.98475215732685
 30
0.0
  0
POINT
  5
51E
  8
DEFPOINTS
 62
     0
 10
250.71718764253589
 20
893.98475215732697
 30
0.0
  0
ENDBLK
  5
515
  8
0
  0
BLOCK
  8
0
  2
*D44
 70
     1
 10
0.0
 20
0.0
 30
0.0
  3
*D44
  1

  0
LINE
  5
F53
  8
0
 62
     0
 10
412.54444097411539
 20
752.13975215732682
 30
0.0
 11
412.54444097411539
 21
729.58440246626367
 31
0.0
  0
LINE
  5
F54
  8
0
 62
     0
 10
555.0444409741159
 20
752.13975215732682
 30
0.0
 11
555.0444409741159
 21
729.58440246626367
 31
0.0
  0
LINE
  5
F55
  8
0
 62
     0
 10
417.0444409741155
 20
730.83440246626378
 30
0.0
 11
550.5444409741159
 21
730.83440246626378
 31
0.0
  0
SOLID
  5
F56
  8
0
 62
     0
 10
417.0444409741155
 20
731.58440246626378
 30
0.0
 11
417.0444409741155
 21
730.08440246626367
 31
0.0
 12
412.54444097411539
 22
730.83440246626378
 32
0.0
 13
412.54444097411539
 23
730.83440246626378
 33
0.0
  0
SOLID
  5
F57
  8
0
 62
     0
 10
550.5444409741159
 20
731.58440246626378
 30
0.0
 11
550.5444409741159
 21
730.08440246626367
 31
0.0
 12
555.0444409741159
 22
730.83440246626378
 32
0.0
 13
555.0444409741159
 23
730.83440246626378
 33
0.0
  0
TEXT
  8
0
  40
10
  5
FC5
  62
0
  72
0
  71
0
 10
463.698
 20
718.759
 30
0.000000
  1
142.5
  0
POINT
  5
F59
  8
DEFPOINTS
 62
     0
 10
412.54444097411539
 20
752.76475215732682
 30
0.0
  0
POINT
  5
F5A
  8
DEFPOINTS
 62
     0
 10
555.0444409741159
 20
752.76475215732682
 30
0.0
  0
POINT
  5
F5B
  8
DEFPOINTS
 62
     0
 10
555.0444409741159
 20
730.83440246626378
 30
0.0
  0
ENDBLK
  5
6E6
  8
0
  0
BLOCK
  8
0
  2
*D45
 70
     1
 10
0.0
 20
0.0
 30
0.0
  3
*D45
  1

  0
LINE
  5
F5C
  8
0
 62
     0
 10
555.66944097411601
 20
893.98475215732685
 30
0.0
 11
589.54696884355656
 21
893.98475215732685
 31
0.0
  0
LINE
  5
F5D
  8
0
 62
     0
 10
555.66944097411601
 20
752.76475215732682
 30
0.0
 11
589.54696884355644
 21
752.76475215732682
 31
0.0
  0
LINE
  5
F5E
  8
0
 62
     0
 10
588.29696884355656
 20
889.48475215732685
 30
0.0
 11
588.29696884355644
 21
757.26475215732682
 31
0.0
  0
SOLID
  5
F5F
  8
0
 62
     0
 10
587.54696884355656
 20
889.48475215732685
 30
0.0
 11
589.04696884355656
 21
889.48475215732685
 31
0.0
 12
588.29696884355656
 22
893.98475215732685
 32
0.0
 13
588.29696884355656
 23
893.98475215732685
 33
0.0
  0
SOLID
  5
F60
  8
0
 62
     0
 10
587.54696884355644
 20
757.26475215732682
 30
0.0
 11
589.04696884355644
 21
757.26475215732682
 31
0.0
 12
588.29696884355644
 22
752.76475215732682
 32
0.0
 13
588.29696884355644
 23
752.76475215732682
 33
0.0
  0
TEXT
  8
0
  40
10
  5
FC6
  62
0
  72
0
  71
0
 10
562.672
 20
805.675
 30
0.000000
  1
141.22
  0
POINT
  5
F62
  8
DEFPOINTS
 62
     0
 10
555.0444409741159
 20
893.98475215732685
 30
0.0
  0
POINT
  5
F63
  8
DEFPOINTS
 62
     0
 10
555.0444409741159
 20
752.76475215732682
 30
0.0
  0
POINT
  5
F64
  8
DEFPOINTS
 62
     0
 10
588.29696884355644
 20
752.76475215732682
 30
0.0
  0
ENDBLK
  5
6F3
  8
0
  0
BLOCK
  8
0
  2
*D46
 70
     1
 10
0.0
 20
0.0
 30
0.0
  3
*D46
  1

  0
LINE
  5
F65
  8
0
 62
     0
 10
555.66944097411601
 20
1035.2020060905199
 30
0.0
 11
589.54696884355656
 21
1035.2020060905199
 31
0.0
  0
LINE
  5
F66
  8
0
 62
     0
 10
555.66944097411601
 20
893.98475215732685
 30
0.0
 11
589.54696884355656
 21
893.98475215732685
 31
0.0
  0
LINE
  5
F67
  8
0
 62
     0
 10
588.29696884355656
 20
1030.7020060905199
 30
0.0
 11
588.29696884355656
 21
898.48475215732685
 31
0.0
  0
SOLID
  5
F68
  8
0
 62
     0
 10
587.54696884355656
 20
1030.7020060905199
 30
0.0
 11
589.04696884355656
 21
1030.7020060905199
 31
0.0
 12
588.29696884355656
 22
1035.2020060905199
 32
0.0
 13
588.29696884355656
 23
1035.2020060905199
 33
0.0
  0
SOLID
  5
F69
  8
0
 62
     0
 10
587.54696884355656
 20
898.48475215732685
 30
0.0
 11
589.04696884355656
 21
898.48475215732685
 31
0.0
 12
588.29696884355656
 22
893.98475215732685
 32
0.0
 13
588.29696884355656
 23
893.98475215732685
 33
0.0
  0
TEXT
  8
0
  40
10
  5
FC7
  62
0
  72
0
  71
0
 10
562.672
 20
946.893
 30
0.000000
  1
141.2173
  0
POINT
  5
F6B
  8
DEFPOINTS
 62
     0
 10
555.0444409741159
 20
1035.2020060905199
 30
0.0
  0
POINT
  5
F6C
  8
DEFPOINTS
 62
     0
 10
555.0444409741159
 20
893.98475215732685
 30
0.0
  0
POINT
  5
F6D
  8
DEFPOINTS
 62
     0
 10
588.29696884355656
 20
893.98475215732685
 30
0.0
  0
ENDBLK
  5
700
  8
0
  0
BLOCK
  8
0
  2
*D47
 70
     1
 10
0.0
 20
0.0
 30
0.0
  3
*D47
  1

  0
LINE
  5
BCB
  8
0
 62
     0
 10
299.4387193246634
 20
706.54346438497669
 30
0.0
 11
274.63258552583341
 21
745.55008448843591
 31
0.0
  0
INSERT
  5
BCC
  8
0
  2
*U68
 10
0.0
 20
0.0
 30
0.0
  0
LINE
  5
BCD
  8
0
 62
     0
 10
270.04444097411579
 20
752.76475215732705
 30
0.0
 11
272.21777260387682
 21
749.34727799837856
 31
0.0
  0
SOLID
  5
BCE
  8
0
 62
     0
 10
275.2654511108239
 20
745.95255330876194
 30
0.0
 11
273.99971994084302
 21
745.14761566810967
 31
0.0
 12
272.21777260387682
 22
749.34727799837856
 32
0.0
 13
272.21777260387682
 23
749.34727799837856
 33
0.0
  0
POINT
  5
BCF
  8
DEFPOINTS
 62
     0
 10
272.21777260387682
 20
749.34727799837856
 30
0.0
  0
POINT
  5
BD0
  8
DEFPOINTS
 62
     0
 10
270.04444097411579
 20
752.76475215732705
 30
0.0
  0
ENDBLK
  5
70D
  8
0
  0
BLOCK
  8
0
  2
*D48
 70
     1
 10
0.0
 20
0.0
 30
0.0
  3
*D48
  1

  0
LINE
  5
F6E
  8
0
 62
     0
 10
359.8363538307043
 20
988.0251013038428
 30
0.0
 11
275.79857361533738
 21
1032.1787698200289
 31
0.0
  0
TEXT
  8
0
  40
10
  5
FC8
  62
0
  72
0
  71
0
 10
334.522
 20
979.471
 30
0.000000
  1
R2
  0
LINE
  5
F70
  8
0
 62
     0
 10
270.04444097411539
 20
1035.2020060905199
 30
0.0
 11
271.81494332526017
 21
1034.271779545754
 31
0.0
  0
SOLID
  5
F71
  8
0
 62
     0
 10
276.14740856962487
 20
1032.8427082017081
 30
0.0
 11
275.44973866104988
 21
1031.5148314383489
 31
0.0
 12
271.81494332526017
 22
1034.271779545754
 32
0.0
 13
271.81494332526017
 23
1034.271779545754
 33
0.0
  0
POINT
  5
F72
  8
DEFPOINTS
 62
     0
 10
271.81494332526017
 20
1034.271779545754
 30
0.0
  0
POINT
  5
F73
  8
DEFPOINTS
 62
     0
 10
270.04444097411539
 20
1035.2020060905199
 30
0.0
  0
ENDBLK
  5
717
  8
0
  0
BLOCK
  8
0
  2
*D49
 70
     1
 10
0.0
 20
0.0
 30
0.0
  3
*D49
  1

  0
LINE
  5
F74
  8
0
 62
     0
 10
314.4747398306651
 20
945.26090740693735
 30
0.0
 11
273.8312364067001
 21
1027.536324101829
 31
0.0
  0
TEXT
  8
0
  40
10
  5
FC9
  62
0
  72
0
  71
0
 10
290.278
 20
948.757
 30
0.000000
  1
R4.05
  0
LINE
  5
F76
  8
0
 62
     0
 10
270.04444097411459
 20
1035.2020060905179
 30
0.0
 11
271.83818617902278
 21
1031.5708935695609
 31
0.0
  0
SOLID
  5
F77
  8
0
 62
     0
 10
274.50366465132203
 20
1027.8684991397749
 30
0.0
 11
273.15880816207812
 21
1027.2041490638831
 31
0.0
 12
271.83818617902278
 22
1031.5708935695609
 32
0.0
 13
271.83818617902278
 23
1031.5708935695609
 33
0.0
  0
POINT
  5
F78
  8
DEFPOINTS
 62
     0
 10
271.83818617902278
 20
1031.5708935695609
 30
0.0
  0
POINT
  5
F79
  8
DEFPOINTS
 62
     0
 10
270.04444097411459
 20
1035.2020060905179
 30
0.0
  0
ENDBLK
  5
721
  8
0
  0
BLOCK
  8
0
  2
*D50
 70
     1
 10
0.0
 20
0.0
 30
0.0
  3
*D50
  1

  0
LINE
  5
F7A
  8
0
 62
     0
 10
269.41944097411471
 20
1035.2020060905179
 30
0.0
 11
255.35825196510871
 21
1035.2020060905179
 31
0.0
  0
LINE
  5
F7B
  8
0
 62
     0
 10
269.41944097411528
 20
893.98475215732685
 30
0.0
 11
255.35825196510859
 21
893.98475215732697
 31
0.0
  0
LINE
  5
F7C
  8
0
 62
     0
 10
256.60825196510859
 20
1030.7020060905179
 30
0.0
 11
256.60825196510859
 21
898.48475215732685
 31
0.0
  0
SOLID
  5
F7D
  8
0
 62
     0
 10
255.85825196510859
 20
1030.7020060905179
 30
0.0
 11
257.35825196510871
 21
1030.7020060905179
 31
0.0
 12
256.60825196510859
 22
1035.2020060905179
 32
0.0
 13
256.60825196510859
 23
1035.2020060905179
 33
0.0
  0
SOLID
  5
F7E
  8
0
 62
     0
 10
255.85825196510859
 20
898.48475215732697
 30
0.0
 11
257.35825196510871
 21
898.48475215732685
 31
0.0
 12
256.60825196510859
 22
893.98475215732685
 32
0.0
 13
256.60825196510859
 23
893.98475215732685
 33
0.0
  0
TEXT
  8
0
  40
10
  5
FCA
  62
0
  72
0
  71
0
 10
230.983
 20
946.893
 30
0.000000
  1
141.2173
  0
POINT
  5
F80
  8
DEFPOINTS
 62
     0
 10
270.04444097411471
 20
1035.2020060905179
 30
0.0
  0
POINT
  5
F81
  8
DEFPOINTS
 62
     0
 10
270.04444097411528
 20
893.98475215732685
 30
0.0
  0
POINT
  5
F82
  8
DEFPOINTS
 62
     0
 10
256.60825196510859
 20
893.98475215732685
 30
0.0
  0
ENDBLK
  5
7C6
  8
0
  0
BLOCK
  8
0
  2
*D51
 70
     1
 10
0.0
 20
0.0
 30
0.0
  3
*D51
  1

  0
LINE
  5
7D4
  8
0
 62
     0
 10
269.50290744521811
 20
752.63350458138189
 30
0.0
 11
255.35825196510859
 21
752.63350458138211
 31
0.0
  0
LINE
  5
7D5
  8
0
 62
     0
 10
269.41944097411528
 20
893.98475215732685
 30
0.0
 11
255.35825196510859
 21
893.98475215732697
 31
0.0
  0
LINE
  5
7D6
  8
0
 62
     0
 10
256.60825196510859
 20
757.13350458138189
 30
0.0
 11
256.60825196510859
 21
889.48475215732685
 31
0.0
  0
SOLID
  5
7D7
  8
0
 62
     0
 10
255.85825196510859
 20
757.13350458138211
 30
0.0
 11
257.35825196510859
 21
757.13350458138189
 31
0.0
 12
256.60825196510859
 22
752.63350458138189
 32
0.0
 13
256.60825196510859
 23
752.63350458138189
 33
0.0
  0
SOLID
  5
7D8
  8
0
 62
     0
 10
255.85825196510859
 20
889.48475215732697
 30
0.0
 11
257.35825196510859
 21
889.48475215732685
 31
0.0
 12
256.60825196510859
 22
893.98475215732685
 32
0.0
 13
256.60825196510859
 23
893.98475215732685
 33
0.0
  0
INSERT
  5
7D9
  8
0
  2
*U63
 10
0.0
 20
0.0
 30
0.0
  0
POINT
  5
7DA
  8
DEFPOINTS
 62
     0
 10
270.12790744521811
 20
752.63350458138189
 30
0.0
  0
POINT
  5
7DB
  8
DEFPOINTS
 62
     0
 10
270.04444097411528
 20
893.98475215732685
 30
0.0
  0
POINT
  5
7DC
  8
DEFPOINTS
 62
     0
 10
256.60825196510859
 20
893.98475215732685
 30
0.0
  0
ENDBLK
  5
7D3
  8
0
  0
BLOCK
  8
0
  2
*D52
 70
     1
 10
0.0
 20
0.0
 30
0.0
  3
*D52
  1

  0
LINE
  5
F87
  8
0
 62
     0
 10
269.41944097411528
 20
893.98475215732685
 30
0.0
 11
255.40068002108481
 21
893.98475215732697
 31
0.0
  0
LINE
  5
F88
  8
0
 62
     0
 10
269.41944097411528
 20
752.76475215732682
 30
0.0
 11
255.40068002108481
 21
752.76475215732694
 31
0.0
  0
LINE
  5
F89
  8
0
 62
     0
 10
256.65068002108478
 20
889.48475215732685
 30
0.0
 11
256.65068002108478
 21
757.26475215732682
 31
0.0
  0
SOLID
  5
F8A
  8
0
 62
     0
 10
255.90068002108481
 20
889.48475215732697
 30
0.0
 11
257.40068002108478
 21
889.48475215732685
 31
0.0
 12
256.65068002108478
 22
893.98475215732685
 32
0.0
 13
256.65068002108478
 23
893.98475215732685
 33
0.0
  0
SOLID
  5
F8B
  8
0
 62
     0
 10
255.90068002108481
 20
757.26475215732694
 30
0.0
 11
257.40068002108478
 21
757.26475215732682
 31
0.0
 12
256.65068002108478
 22
752.76475215732682
 32
0.0
 13
256.65068002108478
 23
752.76475215732682
 33
0.0
  0
TEXT
  8
0
  40
10
  5
FCB
  62
0
  72
0
  71
0
 10
231.026
 20
805.675
 30
0.000000
  1
141.22
  0
POINT
  5
F8D
  8
DEFPOINTS
 62
     0
 10
270.04444097411528
 20
893.98475215732685
 30
0.0
  0
POINT
  5
F8E
  8
DEFPOINTS
 62
     0
 10
270.04444097411528
 20
752.76475215732682
 30
0.0
  0
POINT
  5
F8F
  8
DEFPOINTS
 62
     0
 10
256.65068002108478
 20
752.76475215732682
 30
0.0
  0
ENDBLK
  5
7E0
  8
0
  0
BLOCK
  8
0
  2
*D53
 70
     1
 10
0.0
 20
0.0
 30
0.0
  3
*D53
  1

  0
LINE
  5
A13
  8
0
 62
     0
 10
412.54444097411539
 20
753.38975215732682
 30
0.0
 11
412.54444097411539
 21
762.84156697453341
 31
0.0
  0
LINE
  5
A14
  8
0
 62
     0
 10
270.12790744521811
 20
753.258504581382
 30
0.0
 11
270.12790744521811
 21
762.84156697453341
 31
0.0
  0
LINE
  5
A15
  8
0
 62
     0
 10
408.04444097411539
 20
761.59156697453341
 30
0.0
 11
274.62790744521811
 21
761.59156697453341
 31
0.0
  0
SOLID
  5
A16
  8
0
 62
     0
 10
408.04444097411539
 20
762.34156697453341
 30
0.0
 11
408.04444097411539
 21
760.84156697453329
 31
0.0
 12
412.54444097411539
 22
761.59156697453341
 32
0.0
 13
412.54444097411539
 23
761.59156697453341
 33
0.0
  0
SOLID
  5
A17
  8
0
 62
     0
 10
274.62790744521811
 20
762.34156697453341
 30
0.0
 11
274.62790744521811
 21
760.84156697453329
 31
0.0
 12
270.12790744521811
 22
761.59156697453341
 32
0.0
 13
270.12790744521811
 23
761.59156697453341
 33
0.0
  0
INSERT
  5
A18
  8
0
  2
*U64
 10
0.0
 20
0.0
 30
0.0
  0
POINT
  5
A19
  8
DEFPOINTS
 62
     0
 10
412.54444097411539
 20
752.76475215732682
 30
0.0
  0
POINT
  5
A1A
  8
DEFPOINTS
 62
     0
 10
270.12790744521811
 20
752.63350458138189
 30
0.0
  0
POINT
  5
A1B
  8
DEFPOINTS
 62
     0
 10
270.12790744521811
 20
761.59156697453341
 30
0.0
  0
ENDBLK
  5
A12
  8
0
  0
BLOCK
  8
0
  2
*D54
 70
     1
 10
0.0
 20
0.0
 30
0.0
  3
*D54
  1

  0
LINE
  5
F94
  8
0
 62
     0
 10
412.54444097411539
 20
752.13975215732682
 30
0.0
 11
412.54444097411539
 21
729.58440246626367
 31
0.0
  0
LINE
  5
F95
  8
0
 62
     0
 10
270.04444097411567
 20
752.13975215732717
 30
0.0
 11
270.04444097411567
 21
729.58440246626367
 31
0.0
  0
LINE
  5
F96
  8
0
 62
     0
 10
408.04444097411539
 20
730.83440246626378
 30
0.0
 11
274.54444097411567
 21
730.83440246626378
 31
0.0
  0
SOLID
  5
F97
  8
0
 62
     0
 10
408.04444097411539
 20
731.58440246626378
 30
0.0
 11
408.04444097411539
 21
730.08440246626367
 31
0.0
 12
412.54444097411539
 22
730.83440246626378
 32
0.0
 13
412.54444097411539
 23
730.83440246626378
 33
0.0
  0
SOLID
  5
F98
  8
0
 62
     0
 10
274.54444097411567
 20
731.58440246626378
 30
0.0
 11
274.54444097411567
 21
730.08440246626367
 31
0.0
 12
270.04444097411567
 22
730.83440246626378
 32
0.0
 13
270.04444097411567
 23
730.83440246626378
 33
0.0
  0
TEXT
  8
0
  40
10
  5
FCC
  62
0
  72
0
  71
0
 10
321.294
 20
718.759
 30
0.000000
  1
142.5
  0
POINT
  5
F9A
  8
DEFPOINTS
 62
     0
 10
412.54444097411539
 20
752.76475215732682
 30
0.0
  0
POINT
  5
F9B
  8
DEFPOINTS
 62
     0
 10
270.04444097411567
 20
752.76475215732705
 30
0.0
  0
POINT
  5
F9C
  8
DEFPOINTS
 62
     0
 10
270.04444097411567
 20
730.83440246626378
 30
0.0
  0
ENDBLK
  5
A1F
  8
0
  0
BLOCK
  8
0
  2
*D55
 70
     1
 10
0.0
 20
0.0
 30
0.0
  3
*D55
  1

  0
LINE
  5
A9C
  8
0
 62
     0
 10
554.10694097411567
 20
1042.264752157326
 30
0.0
 11
618.19399707419052
 21
1042.264752157326
 31
0.0
  0
LINE
  5
A9D
  8
0
 62
     0
 10
554.10694097411601
 20
745.76475215732682
 30
0.0
 11
618.19399707419041
 21
745.76475215732682
 31
0.0
  0
LINE
  5
A9E
  8
0
 62
     0
 10
618.01399707419046
 20
1042.084752157326
 30
0.0
 11
618.01399707419046
 21
898.31092764490984
 31
0.0
  0
LINE
  5
A9F
  8
0
 62
     0
 10
618.01399707419034
 20
745.94475215732677
 30
0.0
 11
618.01399707419046
 21
888.13084764490975
 31
0.0
  0
SOLID
  5
AA0
  8
0
 62
     0
 10
617.98399707419037
 20
1042.084752157326
 30
0.0
 11
618.04399707419043
 21
1042.084752157326
 31
0.0
 12
618.01399707419046
 22
1042.264752157326
 32
0.0
 13
618.01399707419046
 23
1042.264752157326
 33
0.0
  0
SOLID
  5
AA1
  8
0
 62
     0
 10
617.98399707419037
 20
745.94475215732677
 30
0.0
 11
618.04399707419032
 21
745.94475215732677
 31
0.0
 12
618.01399707419034
 22
745.76475215732682
 32
0.0
 13
618.01399707419034
 23
745.76475215732682
 33
0.0
  0
INSERT
  5
AA2
  8
0
  2
*U66
 10
0.0
 20
0.0
 30
0.0
  0
POINT
  5
AA3
  8
DEFPOINTS
 62
     0
 10
554.04444097411579
 20
1042.264752157326
 30
0.0
  0
POINT
  5
AA4
  8
DEFPOINTS
 62
     0
 10
554.04444097411601
 20
745.76475215732682
 30
0.0
  0
POINT
  5
AA5
  8
DEFPOINTS
 62
     0
 10
618.01399707419034
 20
745.76475215732682
 30
0.0
  0
ENDBLK
  5
A2B
  8
0
  0
BLOCK
  8
0
  2
*D56
 70
     1
 10
0.0
 20
0.0
 30
0.0
  3
*D56
  1

  0
LINE
  5
A88
  8
0
 62
     0
 10
263.0444409741163
 20
1034.327252157326
 30
0.0
 11
263.0444409741163
 21
1071.9962710500761
 31
0.0
  0
LINE
  5
A89
  8
0
 62
     0
 10
562.04444097411579
 20
1034.327252157326
 30
0.0
 11
562.04444097411579
 21
1071.9962710500761
 31
0.0
  0
LINE
  5
A8A
  8
0
 62
     0
 10
263.22444097411631
 20
1071.816271050076
 30
0.0
 11
378.16845240268742
 21
1071.816271050076
 31
0.0
  0
LINE
  5
A8B
  8
0
 62
     0
 10
561.86444097411584
 20
1071.816271050076
 30
0.0
 11
446.92042954554461
 21
1071.816271050076
 31
0.0
  0
SOLID
  5
A8C
  8
0
 62
     0
 10
263.22444097411631
 20
1071.846271050076
 30
0.0
 11
263.22444097411631
 21
1071.786271050076
 31
0.0
 12
263.0444409741163
 22
1071.816271050076
 32
0.0
 13
263.0444409741163
 23
1071.816271050076
 33
0.0
  0
SOLID
  5
A8D
  8
0
 62
     0
 10
561.86444097411584
 20
1071.846271050076
 30
0.0
 11
561.86444097411584
 21
1071.786271050076
 31
0.0
 12
562.04444097411579
 22
1071.816271050076
 32
0.0
 13
562.04444097411579
 23
1071.816271050076
 33
0.0
  0
INSERT
  5
A8E
  8
0
  2
*U65
 10
0.0
 20
0.0
 30
0.0
  0
POINT
  5
A8F
  8
DEFPOINTS
 62
     0
 10
263.0444409741163
 20
1034.264752157326
 30
0.0
  0
POINT
  5
A90
  8
DEFPOINTS
 62
     0
 10
562.04444097411579
 20
1034.264752157326
 30
0.0
  0
POINT
  5
A91
  8
DEFPOINTS
 62
     0
 10
562.04444097411579
 20
1071.816271050076
 30
0.0
  0
ENDBLK
  5
A52
  8
0
  0
BLOCK
  8
0
  2
*D57
 70
     1
 10
0.0
 20
0.0
 30
0.0
  3
*D57
  1

  0
LINE
  5
FA5
  8
0
 62
     0
 10
554.66944097411567
 20
1042.264752157326
 30
0.0
 11
615.22398465776769
 21
1042.264752157326
 31
0.0
  0
LINE
  5
FA6
  8
0
 62
     0
 10
554.66944097411601
 20
745.76475215732682
 30
0.0
 11
615.22398465776769
 21
745.76475215732682
 31
0.0
  0
LINE
  5
FA7
  8
0
 62
     0
 10
613.97398465776769
 20
1038.264752157326
 30
0.0
 11
613.97398465776757
 21
749.76475215732682
 31
0.0
  0
SOLID
  5
FA8
  8
0
 62
     0
 10
613.30731799110106
 20
1038.264752157326
 30
0.0
 11
614.64065132443443
 21
1038.264752157326
 31
0.0
 12
613.97398465776769
 22
1042.264752157326
 32
0.0
 13
613.97398465776769
 23
1042.264752157326
 33
0.0
  0
SOLID
  5
FA9
  8
0
 62
     0
 10
613.30731799110094
 20
749.76475215732682
 30
0.0
 11
614.64065132443432
 21
749.76475215732682
 31
0.0
 12
613.97398465776757
 22
745.76475215732682
 32
0.0
 13
613.97398465776757
 23
745.76475215732682
 33
0.0
  0
TEXT
  8
0
  40
10
  5
FCD
  62
0
  72
0
  71
0
 10
588.349
 20
876.315
 30
0.000000
  1
296.5
  0
POINT
  5
FAB
  8
DEFPOINTS
 62
     0
 10
554.04444097411579
 20
1042.264752157326
 30
0.0
  0
POINT
  5
FAC
  8
DEFPOINTS
 62
     0
 10
554.04444097411601
 20
745.76475215732682
 30
0.0
  0
POINT
  5
FAD
  8
DEFPOINTS
 62
     0
 10
613.97398465776757
 20
745.76475215732682
 30
0.0
  0
ENDBLK
  5
AA9
  8
0
  0
BLOCK
  8
0
  2
*D58
 70
     1
 10
0.0
 20
0.0
 30
0.0
  3
*D58
  1

  0
LINE
  5
FAE
  8
0
 62
     0
 10
263.0444409741163
 20
1034.889752157326
 30
0.0
 11
263.0444409741163
 21
1065.6756698089121
 31
0.0
  0
LINE
  5
FAF
  8
0
 62
     0
 10
562.04444097411579
 20
1034.889752157326
 30
0.0
 11
562.04444097411579
 21
1065.6756698089121
 31
0.0
  0
LINE
  5
FB0
  8
0
 62
     0
 10
267.0444409741163
 20
1064.4256698089121
 30
0.0
 11
558.04444097411579
 21
1064.4256698089121
 31
0.0
  0
SOLID
  5
FB1
  8
0
 62
     0
 10
267.0444409741163
 20
1065.092336475579
 30
0.0
 11
267.0444409741163
 21
1063.7590031422451
 31
0.0
 12
263.0444409741163
 22
1064.4256698089121
 32
0.0
 13
263.0444409741163
 23
1064.4256698089121
 33
0.0
  0
SOLID
  5
FB2
  8
0
 62
     0
 10
558.04444097411579
 20
1065.092336475579
 30
0.0
 11
558.04444097411579
 21
1063.7590031422451
 31
0.0
 12
562.04444097411579
 22
1064.4256698089121
 32
0.0
 13
562.04444097411579
 23
1064.4256698089121
 33
0.0
  0
TEXT
  8
0
  40
10
  5
FCE
  62
0
  72
0
  71
0
 10
392.544
 20
1052.35
 30
0.000000
  1
299
  0
POINT
  5
FB4
  8
DEFPOINTS
 62
     0
 10
263.0444409741163
 20
1034.264752157326
 30
0.0
  0
POINT
  5
FB5
  8
DEFPOINTS
 62
     0
 10
562.04444097411579
 20
1034.264752157326
 30
0.0
  0
POINT
  5
FB6
  8
DEFPOINTS
 62
     0
 10
562.04444097411579
 20
1064.4256698089121
 30
0.0
  0
ENDBLK
  5
AB6
  8
0
  0
BLOCK
  8
0
  2
*D59
 70
     1
 10
0.0
 20
0.0
 30
0.0
  3
*D59
  1

  0
LINE
  5
C0D
  8
0
 62
     0
 10
256.97221345659898
 20
741.33292876590997
 30
0.0
 11
260.97221345659892
 21
741.33292876590986
 31
0.0
  0
LINE
  5
C0E
  8
0
 62
     0
 10
260.97221345659892
 20
741.33292876590986
 30
0.0
 11
263.49027033597793
 21
744.44088461376407
 31
0.0
  0
INSERT
  5
C0F
  8
0
  2
*U69
 10
0.0
 20
0.0
 30
0.0
  0
SOLID
  5
C10
  8
0
 62
     0
 10
262.97227769466878
 20
744.86056076032742
 30
0.0
 11
264.0082629772869
 21
744.02120846720095
 31
0.0
 12
266.00832721535693
 22
747.54884046161851
 32
0.0
 13
266.00832721535693
 23
747.54884046161851
 33
0.0
  0
LINE
  5
C11
  8
0
 62
     0
 10
270.95444097411519
 20
753.76475215732751
 30
0.0
 11
271.13444097411508
 21
753.76475215732762
 31
0.0
  0
LINE
  5
C12
  8
0
 62
     0
 10
271.0444409741151
 20
753.67475215732748
 30
0.0
 11
271.0444409741151
 21
753.85475215732754
 31
0.0
  0
POINT
  5
C13
  8
DEFPOINTS
 62
     0
 10
266.00832721535693
 20
747.54884046161851
 30
0.0
  0
POINT
  5
C14
  8
DEFPOINTS
 62
     0
 10
271.0444409741151
 20
753.76475215732739
 30
0.0
  0
ENDBLK
  5
C0C
  8
0
  0
BLOCK
  8
0
  2
*U62
 70
     1
 10
0.0
 20
0.0
 30
0.0
  3
*U62
  1

  0
TEXT
  5
F50
  8
0
 62
     0
 10
250.09218764253581
 20
945.59397605777997
 30
0.0
 40
6.0
  1
141.2184
 50
90.0
  0
ENDBLK
  5
F52
  8
0
  0
BLOCK
  8
0
  2
*U63
 70
     1
 10
0.0
 20
0.0
 30
0.0
  3
*U63
  1

  0
TEXT
  5
F84
  8
0
 62
     0
 10
255.98325196510851
 20
804.45198551221165
 30
0.0
 40
6.0
  1
141.3512
 50
90.0
  0
ENDBLK
  5
F86
  8
0
  0
BLOCK
  8
0
  2
*U64
 70
     1
 10
0.0
 20
0.0
 30
0.0
  3
*U64
  1

  0
TEXT
  5
F91
  8
0
 62
     0
 10
321.90760278109542
 20
762.21656697453341
 30
0.0
 40
6.0
  1
142.4165
  0
ENDBLK
  5
F93
  8
0
  0
BLOCK
  8
0
  2
*U65
 70
     1
 10
0.0
 20
0.0
 30
0.0
  3
*U65
  1

  0
TEXT
  5
F9E
  8
0
 62
     0
 10
378.25845240268751
 20
1066.8162310500761
 30
0.0
 40
10.000080000000001
  1
299.0000
  0
ENDBLK
  5
FA0
  8
0
  0
BLOCK
  8
0
  2
*U66
 70
     1
 10
0.0
 20
0.0
 30
0.0
  3
*U66
  1

  0
TEXT
  5
FA2
  8
0
 62
     0
 10
583.72800850276155
 20
888.2208476449099
 30
0.0
 40
10.000080000000001
  1
296.5000
  0
ENDBLK
  5
FA4
  8
0
  0
BLOCK
  8
0
  2
*U67
 70
     1
 10
0.0
 20
0.0
 30
0.0
  3
*U67
  1

  0
TEXT
  5
FB8
  8
0
 62
     0
 10
564.3887124110604
 20
1042.1457688537989
 30
0.0
 40
10.0
  1
R2
 50
33.538721875610221
  0
ENDBLK
  5
FBA
  8
0
  0
BLOCK
  8
0
  2
*U68
 70
     1
 10
0.0
 20
0.0
 30
0.0
  3
*U68
  1

  0
TEXT
  5
FBC
  8
0
 62
     0
 10
277.9101771188873
 20
741.56089367460618
 30
0.0
 40
10.0
  1
R4.05
 50
302.45418852954191
  0
ENDBLK
  5
FBE
  8
0
  0
BLOCK
  8
0
  2
*U69
 70
     1
 10
0.0
 20
0.0
 30
0.0
  3
*U69
  1

  0
TEXT
  5
FC0
  8
0
 62
     0
 10
197.35840393278929
 20
736.33292876590986
 30
0.0
 40
10.0
  1
R8.0000
  0
ENDBLK
  5
FC2
  8
0
  0
ENDSEC
  0
SECTION
  2
ENTITIES
  0
POLYLINE
  5
B7
  8
0
 66
     1
 10
0.0
 20
0.0
 30
0.0
 70
     1
  0
VERTEX
  5
EEF
  8
0
 10
562.04444097411601
 20
753.76475215732682
 30
0.0
  0
VERTEX
  5
EF0
  8
0
 10
562.04444097411579
 20
1034.264752157326
 30
0.0
 42
0.4142135623730951
  0
VERTEX
  5
EF1
  8
0
 10
554.04444097411579
 20
1042.264752157326
 30
0.0
  0
VERTEX
  5
EF2
  8
0
 10
271.0444409741163
 20
1042.264752157326
 30
0.0
 42
0.4142135623730951
  0
VERTEX
  5
EF3
  8
0
 10
263.0444409741163
 20
1034.264752157326
 30
0.0
  0
VERTEX
  5
EF4
  8
0
 10
263.04444097411528
 20
753.76475215732682
 30
0.0
 42
0.4142135623730953
  0
VERTEX
  5
EF5
  8
0
 10
271.04444097411528
 20
745.76475215732682
 30
0.0
  0
VERTEX
  5
EF6
  8
0
 10
554.04444097411601
 20
745.76475215732682
 30
0.0
 42
0.4142135623730951
  0
SEQEND
  5
EF7
  8
0
  0
CIRCLE
  5
169
  8
0
 10
412.54444097411539
 20
752.76475215732682
 30
0.0
 40
2.0
  0
CIRCLE
  5
16A
  8
0
 10
270.04444097411528
 20
752.76475215732682
 30
0.0
 40
2.0
  0
CIRCLE
  5
16B
  8
0
 10
270.04444097411528
 20
893.98475215732685
 30
0.0
 40
2.0
  0
CIRCLE
  5
16C
  8
0
 10
270.04444097411528
 20
1035.2020060905211
 30
0.0
 40
2.0
  0
CIRCLE
  5
16D
  8
0
 10
412.54444097411539
 20
1035.2020060905211
 30
0.0
 40
2.0
  0
CIRCLE
  5
16E
  8
0
 10
555.0444409741159
 20
752.76475215732682
 30
0.0
 40
2.0
  0
CIRCLE
  5
16F
  8
0
 10
555.0444409741159
 20
893.98475215732685
 30
0.0
 40
2.0
  0
CIRCLE
  5
170
  8
0
 10
555.0444409741159
 20
1035.2020060905199
 30
0.0
 40
2.0
  0
POLYLINE
  5
2A7
  8
0
 66
     1
 10
0.0
 20
0.0
 30
0.0
 70
     1
  0
VERTEX
  5
EF8
  8
0
 10
284.29444097411618
 20
1019.564752157327
 30
0.0
  0
VERTEX
  5
EF9
  8
0
 10
284.29444097411618
 20
811.96475215732653
 30
0.0
  0
VERTEX
  5
EFA
  8
0
 10
540.79444097411567
 20
811.96475215732653
 30
0.0
  0
VERTEX
  5
EFB
  8
0
 10
540.79444097411567
 20
1019.564752157327
 30
0.0
  0
SEQEND
  5
EFC
  8
0
  0
CIRCLE
  5
2B0
  8
0
 10
555.0444409741159
 20
752.76475215732682
 30
0.0
 40
4.049999999999998
  0
CIRCLE
  5
2B1
  8
0
 10
555.0444409741159
 20
893.98475215732685
 30
0.0
 40
4.049999999999998
  0
CIRCLE
  5
2B2
  8
0
 10
555.0444409741159
 20
1035.2020060905199
 30
0.0
 40
4.049999999999998
  0
CIRCLE
  5
2B3
  8
0
 10
412.54444097411539
 20
1035.2020060905211
 30
0.0
 40
4.049999999999998
  0
CIRCLE
  5
2B4
  8
0
 10
270.04444097411528
 20
893.98475215732685
 30
0.0
 40
4.049999999999998
  0
CIRCLE
  5
2B5
  8
0
 10
412.54444097411539
 20
752.76475215732682
 30
0.0
 40
4.049999999999998
  0
CIRCLE
  5
2B6
  8
0
 10
270.04444097411528
 20
1035.2020060905211
 30
0.0
 40
4.049999999999998
  0
CIRCLE
  5
2B7
  8
0
 10
270.04444097411528
 20
752.76475215732682
 30
0.0
 40
4.049999999999998
  0
DIMENSION
  5
34F
  8
0
  2
*D59
 10
271.0444409741151
 20
753.76475215732739
 30
0.0
 11
227.1203086946941
 21
741.33292876590997
 31
0.0
 70
     4
 15
266.00832721535693
 25
747.54884046161851
 35
0.0
 40
0.0
1001
ACAD
1000
DSTYLE
1002
{
1070
   288
1070
     1
1002
}
1001
ACAD_DSTYLE_DIMRADIAL_EXTENSION
1070
   387
1070
     1
1070
   388
1040
3.1415926535897918
1070
   390
1040
4.7123889803846879
  0
DIMENSION
  5
4F8
  8
0
  2
*D41
 10
555.04444097411488
 20
1045.552322526579
 30
0.0
 11
483.79444097411522
 21
1051.177322526579
 31
0.0
 70
     0
 13
412.54444097411539
 23
1035.2020060905211
 33
0.0
 14
555.04444097411488
 24
1035.2020060905199
 34
0.0
1001
ACAD
1000
DSTYLE
1002
{
1070
   287
1070
     3
1070
   274
1070
     2
1070
   279
1070
     0
1070
   284
1070
     0
1070
   285
1070
     0
1070
   286
1070
     0
1002
}
  0
DIMENSION
  5
505
  8
0
  2
*D42
 10
412.54444097411539
 20
1045.552322526579
 30
0.0
 11
341.29444097411539
 21
1051.177322526579
 31
0.0
 70
     0
 13
270.04444097411528
 23
1035.2020060905211
 33
0.0
 14
412.54444097411539
 24
1035.2020060905211
 34
0.0
1001
ACAD
1000
DSTYLE
1002
{
1070
   287
1070
     3
1070
   274
1070
     2
1070
   279
1070
     0
1070
   284
1070
     0
1070
   285
1070
     0
1070
   286
1070
     0
1002
}
  0
DIMENSION
  5
6E3
  8
0
  2
*D44
 10
555.0444409741159
 20
730.83440246626378
 30
0.0
 11
483.6976105623171
 21
730.83440246626378
 31
0.0
 70
   128
 13
412.54444097411539
 23
752.76475215732682
 33
0.0
 14
555.0444409741159
 24
752.76475215732682
 34
0.0
1001
ACAD
1000
DSTYLE
1002
{
1070
   287
1070
     3
1070
   274
1070
     2
1070
   279
1070
     0
1070
   284
1070
     0
1070
   285
1070
     0
1070
   286
1070
     0
1002
}
  0
DIMENSION
  5
6F0
  8
0
  2
*D45
 10
588.29696884355644
 20
752.76475215732682
 30
0.0
 11
582.67196884355633
 21
823.37475215732695
 31
0.0
 70
     0
 13
555.0444409741159
 23
893.98475215732685
 33
0.0
 14
555.0444409741159
 24
752.76475215732682
 34
0.0
 50
90.0
1001
ACAD
1000
DSTYLE
1002
{
1070
   287
1070
     3
1070
   274
1070
     2
1070
   279
1070
     0
1070
   284
1070
     0
1070
   285
1070
     0
1070
   286
1070
     0
1002
}
  0
DIMENSION
  5
6FD
  8
0
  2
*D46
 10
588.29696884355656
 20
893.98475215732685
 30
0.0
 11
582.67196884355644
 21
964.59337912392346
 31
0.0
 70
     0
 13
555.0444409741159
 23
1035.2020060905199
 33
0.0
 14
555.0444409741159
 24
893.98475215732685
 34
0.0
 50
90.0
1001
ACAD
1000
DSTYLE
1002
{
1070
   287
1070
     3
1070
   274
1070
     2
1070
   279
1070
     0
1070
   284
1070
     0
1070
   285
1070
     0
1070
   286
1070
     0
1002
}
  0
DIMENSION
  5
714
  8
0
  2
*D48
 10
270.04444097411539
 20
1035.2020060905199
 30
0.0
 11
351.90597871619872
 21
992.19174103561011
 31
0.0
 70
   132
 15
271.81494332526017
 25
1034.271779545754
 35
0.0
 40
0.0
1001
ACAD_DSTYLE_DIMRADIAL_EXTENSION
1070
   387
1070
     1
1070
   388
1040
0.0
1070
   390
1040
0.0
1001
ACAD
1000
DSTYLE
1002
{
1070
   287
1070
     3
1070
   274
1070
     2
1070
   279
1070
     0
1070
   284
1070
     0
1070
   285
1070
     0
1070
   286
1070
     0
1070
   288
1070
     1
1002
}
  0
DIMENSION
  5
71E
  8
0
  2
*D49
 10
270.04444097411459
 20
1035.2020060905179
 30
0.0
 11
305.23447389414588
 21
963.96615341804954
 31
0.0
 70
   132
 15
271.83818617902278
 25
1031.5708935695609
 35
0.0
 40
0.0
1001
ACAD_DSTYLE_DIMRADIAL_EXTENSION
1070
   387
1070
     1
1070
   388
1040
0.0
1070
   390
1040
0.0
1001
ACAD
1000
DSTYLE
1002
{
1070
   287
1070
     3
1070
   274
1070
     2
1070
   279
1070
     0
1070
   284
1070
     0
1070
   285
1070
     0
1070
   286
1070
     0
1070
   288
1070
     1
1002
}
  0
DIMENSION
  5
7C3
  8
0
  2
*D50
 10
256.60825196510859
 20
893.98475215732685
 30
0.0
 11
250.98325196510851
 21
964.59337912392255
 31
0.0
 70
     0
 13
270.04444097411471
 23
1035.2020060905179
 33
0.0
 14
270.04444097411528
 24
893.98475215732685
 34
0.0
 50
90.0
1001
ACAD
1000
DSTYLE
1002
{
1070
   287
1070
     3
1070
   274
1070
     2
1070
   279
1070
     0
1070
   284
1070
     0
1070
   285
1070
     0
1070
   286
1070
     0
1002
}
  0
DIMENSION
  5
7DD
  8
0
  2
*D52
 10
256.65068002108478
 20
752.76475215732682
 30
0.0
 11
256.65068002108472
 21
823.37475215732695
 31
0.0
 70
   128
 13
270.04444097411528
 23
893.98475215732685
 33
0.0
 14
270.04444097411528
 24
752.76475215732682
 34
0.0
 50
90.0
1001
ACAD
1000
DSTYLE
1002
{
1070
   287
1070
     3
1070
   274
1070
     2
1070
   279
1070
     0
1070
   284
1070
     0
1070
   285
1070
     0
1070
   286
1070
     0
1002
}
  0
DIMENSION
  5
A1C
  8
0
  2
*D54
 10
270.04444097411567
 20
730.83440246626378
 30
0.0
 11
341.29444097411562
 21
730.83440246626378
 31
0.0
 70
   128
 13
412.54444097411539
 23
752.76475215732682
 33
0.0
 14
270.04444097411567
 24
752.76475215732705
 34
0.0
1001
ACAD
1000
DSTYLE
1002
{
1070
   287
1070
     3
1070
   274
1070
     2
1070
   279
1070
     0
1070
   284
1070
     0
1070
   285
1070
     0
1070
   286
1070
     0
1002
}
  0
DIMENSION
  5
AA6
  8
0
  2
*D57
 10
613.97398465776757
 20
745.76475215732682
 30
0.0
 11
608.34898465776746
 21
894.01475215732648
 31
0.0
 70
     0
 13
554.04444097411579
 23
1042.264752157326
 33
0.0
 14
554.04444097411601
 24
745.76475215732682
 34
0.0
 50
90.0
1001
ACAD
1000
DSTYLE
1002
{
1070
   287
1070
     3
1070
    41
1040
4.0
1070
   140
1040
10.0
1070
   279
1070
     0
1070
   284
1070
     0
1070
   285
1070
     0
1070
   286
1070
     0
1002
}
  0
DIMENSION
  5
AB3
  8
0
  2
*D58
 10
562.04444097411579
 20
1064.4256698089121
 30
0.0
 11
412.54444097411601
 21
1070.0506698089121
 31
0.0
 70
     0
 13
263.0444409741163
 23
1034.264752157326
 33
0.0
 14
562.04444097411579
 24
1034.264752157326
 34
0.0
1001
ACAD
1000
DSTYLE
1002
{
1070
   287
1070
     3
1070
    41
1040
4.0
1070
   140
1040
10.0
1070
   279
1070
     0
1070
   284
1070
     0
1070
   285
1070
     0
1070
   286
1070
     0
1002
}
  0
ENDSEC
  0
EOF
