  0
SECTION
  2
HEADER
  9
$ACADVER
  1
AC1009
  9
$INSBASE
 10
0.0
 20
0.0
 30
0.0
  9
$EXTMIN
 10
596.66001007399984
 20
-720.57621284005984
 30
0.0
  9
$EXTMAX
 10
2490.3390192759321
 20
1102.9296372288611
 30
0.0
  9
$LIMMIN
 10
0.0
 20
0.0
  9
$LIMMAX
 10
420.0
 20
297.0
  9
$ORTHOMODE
 70
     1
  9
$REGENMODE
 70
     1
  9
$FILLMODE
 70
     1
  9
$QTEXTMODE
 70
     0
  9
$MIRRTEXT
 70
     0
  9
$DRAGMODE
 70
     2
  9
$LTSCALE
 40
1.0
  9
$OSMODE
 70
   295
  9
$ATTMODE
 70
     1
  9
$TEXTSIZE
 40
2.5
  9
$TRACEWID
 40
1.0
  9
$TEXTSTYLE
  7
STANDARD
  9
$CLAYER
  8
0
  9
$CELTYPE
  6
BYLAYER
  9
$CECOLOR
 62
   256
  9
$DIMSCALE
 40
1.0
  9
$DIMASZ
 40
2.5
  9
$DIMEXO
 40
0.625
  9
$DIMDLI
 40
3.75
  9
$DIMRND
 40
0.0
  9
$DIMDLE
 40
0.0
  9
$DIMEXE
 40
1.25
  9
$DIMTP
 40
0.0
  9
$DIMTM
 40
0.0
  9
$DIMTXT
 40
2.5
  9
$DIMCEN
 40
2.5
  9
$DIMTSZ
 40
0.0
  9
$DIMTOL
 70
     0
  9
$DIMLIM
 70
     0
  9
$DIMTIH
 70
     0
  9
$DIMTOH
 70
     0
  9
$DIMSE1
 70
     0
  9
$DIMSE2
 70
     0
  9
$DIMTAD
 70
     1
  9
$DIMZIN
 70
     8
  9
$DIMBLK
  1

  9
$DIMASO
 70
     1
  9
$DIMSHO
 70
     1
  9
$DIMPOST
  1

  9
$DIMAPOST
  1

  9
$DIMALT
 70
     0
  9
$DIMALTD
 70
     3
  9
$DIMALTF
 40
0.03937007874016
  9
$DIMLFAC
 40
1.0
  9
$DIMTOFL
 70
     1
  9
$DIMTVP
 40
0.0
  9
$DIMTIX
 70
     0
  9
$DIMSOXD
 70
     0
  9
$DIMSAH
 70
     0
  9
$DIMBLK1
  1

  9
$DIMBLK2
  1

  9
$DIMSTYLE
  2
ISO-25
  9
$DIMCLRD
 70
     0
  9
$DIMCLRE
 70
     0
  9
$DIMCLRT
 70
     0
  9
$DIMTFAC
 40
1.0
  9
$DIMGAP
 40
0.625
  9
$LUNITS
 70
     2
  9
$LUPREC
 70
     4
  9
$SKETCHINC
 40
1.0
  9
$FILLETRAD
 40
4.0
  9
$AUNITS
 70
     0
  9
$AUPREC
 70
     0
  9
$MENU
  1
.
  9
$ELEVATION
 40
0.0
  9
$PELEVATION
 40
0.0
  9
$THICKNESS
 40
0.0
  9
$LIMCHECK
 70
     0
  9
$BLIPMODE
 70
     0
  9
$CHAMFERA
 40
0.0
  9
$CHAMFERB
 40
0.0
  9
$SKPOLY
 70
     0
  9
$TDCREATE
 40
2459166.849489294
  9
$TDUPDATE
 40
2459190.7735407529
  9
$TDINDWG
 40
0.2456542708
  9
$TDUSRTIMER
 40
0.2456517708
  9
$USRTIMER
 70
     1
  9
$ANGBASE
 50
0.0
  9
$ANGDIR
 70
     0
  9
$PDMODE
 70
     0
  9
$PDSIZE
 40
0.0
  9
$PLINEWID
 40
0.0
  9
$COORDS
 70
     1
  9
$SPLFRAME
 70
     0
  9
$SPLINETYPE
 70
     6
  9
$SPLINESEGS
 70
     8
  9
$ATTDIA
 70
     1
  9
$ATTREQ
 70
     1
  9
$HANDLING
 70
     1
  9
$HANDSEED
  5
DC9
  9
$SURFTAB1
 70
     6
  9
$SURFTAB2
 70
     6
  9
$SURFTYPE
 70
     6
  9
$SURFU
 70
     6
  9
$SURFV
 70
     6
  9
$UCSNAME
  2

  9
$UCSORG
 10
0.0
 20
0.0
 30
0.0
  9
$UCSXDIR
 10
1.0
 20
0.0
 30
0.0
  9
$UCSYDIR
 10
0.0
 20
1.0
 30
0.0
  9
$PUCSNAME
  2

  9
$PUCSORG
 10
0.0
 20
0.0
 30
0.0
  9
$PUCSXDIR
 10
1.0
 20
0.0
 30
0.0
  9
$PUCSYDIR
 10
0.0
 20
1.0
 30
0.0
  9
$USERI1
 70
     0
  9
$USERI2
 70
     0
  9
$USERI3
 70
     0
  9
$USERI4
 70
     0
  9
$USERI5
 70
     0
  9
$USERR1
 40
0.0
  9
$USERR2
 40
0.0
  9
$USERR3
 40
0.0
  9
$USERR4
 40
0.0
  9
$USERR5
 40
0.0
  9
$WORLDVIEW
 70
     1
  9
$SHADEDGE
 70
     3
  9
$SHADEDIF
 70
    70
  9
$TILEMODE
 70
     1
  9
$MAXACTVP
 70
    64
  9
$PLIMCHECK
 70
     0
  9
$PEXTMIN
 10
0.0
 20
0.0
 30
0.0
  9
$PEXTMAX
 10
0.0
 20
0.0
 30
0.0
  9
$PLIMMIN
 10
0.0
 20
0.0
  9
$PLIMMAX
 10
12.0
 20
9.0
  9
$UNITMODE
 70
     0
  9
$VISRETAIN
 70
     1
  9
$PLINEGEN
 70
     0
  9
$PSLTSCALE
 70
     1
  0
ENDSEC
  0
SECTION
  2
TABLES
  0
TABLE
  2
VPORT
 70
     1
  0
VPORT
  2
*ACTIVE
 70
     0
 10
0.0
 20
0.0
 11
1.0
 21
1.0
 12
1639.101474808592
 22
376.3998341750621
 13
0.0
 23
0.0
 14
10.0
 24
10.0
 15
10.0
 25
10.0
 16
0.0
 26
0.0
 36
1.0
 17
0.0
 27
0.0
 37
0.0
 40
2262.1846863102969
 41
2.1970684039087942
 42
50.0
 43
0.0
 44
0.0
 50
0.0
 51
0.0
 71
     0
 72
  1000
 73
     1
 74
     3
 75
     0
 76
     0
 77
     0
 78
     0
  0
ENDTAB
  0
TABLE
  2
LTYPE
 70
     1
  0
LTYPE
  2
CONTINUOUS
 70
     0
  3
Solid line
 72
    65
 73
     0
 40
0.0
  0
ENDTAB
  0
TABLE
  2
LAYER
 70
     2
  0
LAYER
  2
0
 70
     0
 62
     7
  6
CONTINUOUS
  0
LAYER
  2
DEFPOINTS
 70
     0
 62
     7
  6
CONTINUOUS
  0
ENDTAB
  0
TABLE
  2
STYLE
 70
     1
  0
STYLE
  2
STANDARD
 70
     0
 40
0.0
 41
1.0
 50
0.0
 71
     0
 42
2.5
  3
txt
  4

  0
ENDTAB
  0
TABLE
  2
VIEW
 70
     0
  0
ENDTAB
  0
TABLE
  2
UCS
 70
     0
  0
ENDTAB
  0
TABLE
  2
APPID
 70
     3
  0
APPID
  2
ACAD
 70
     0
  0
APPID
  2
ACAD_NAV_VCDISPLAY
 70
     0
  0
APPID
  2
ACAD_MLEADERVER
 70
     0
  0
ENDTAB
  0
TABLE
  2
DIMSTYLE
 70
     1
  0
DIMSTYLE
  2
ISO-25
 70
     0
  3

  4

  5

  6

  7

 40
1.0
 41
2.5
 42
0.625
 43
3.75
 44
1.25
 45
0.0
 46
0.0
 47
0.0
 48
0.0
140
2.5
141
2.5
142
0.0
143
0.03937007874016
144
1.0
145
0.0
146
1.0
147
0.625
 71
     0
 72
     0
 73
     0
 74
     0
 75
     0
 76
     0
 77
     1
 78
     8
170
     0
171
     3
172
     1
173
     0
174
     0
175
     0
176
     0
177
     0
178
     0
  0
ENDTAB
  0
ENDSEC
  0
SECTION
  2
BLOCKS
  0
BLOCK
  8
0
  2
$MODEL_SPACE
 70
     0
 10
0.0
 20
0.0
 30
0.0
  3
$MODEL_SPACE
  1

  0
ENDBLK
  5
21
  8
0
  0
BLOCK
 67
     1
  8
0
  2
$PAPER_SPACE
 70
     0
 10
0.0
 20
0.0
 30
0.0
  3
$PAPER_SPACE
  1

  0
ENDBLK
  5
53
 67
     1
  8
0
  0
BLOCK
  8
0
  2
*D1
 70
     1
 10
0.0
 20
0.0
 30
0.0
  3
*D1
  1

  0
LINE
  5
BB
  8
0
 62
     0
 10
795.493687149572
 20
-921.62497034924195
 30
0.0
 11
795.493687149572
 21
-956.72434412051757
 31
0.0
  0
LINE
  5
BC
  8
0
 62
     0
 10
847.49368714957188
 20
-921.62497034924195
 30
0.0
 11
847.49368714957188
 21
-956.72434412051757
 31
0.0
  0
LINE
  5
BD
  8
0
 62
     0
 10
797.993687149572
 20
-955.47434412051746
 30
0.0
 11
844.99368714957188
 21
-955.47434412051746
 31
0.0
  0
SOLID
  5
BE
  8
0
 62
     0
 10
797.993687149572
 20
-955.05767745385072
 30
0.0
 11
797.993687149572
 21
-955.89101078718431
 31
0.0
 12
795.493687149572
 22
-955.47434412051746
 32
0.0
 13
795.493687149572
 23
-955.47434412051746
 33
0.0
  0
SOLID
  5
BF
  8
0
 62
     0
 10
844.99368714957188
 20
-955.05767745385072
 30
0.0
 11
844.99368714957188
 21
-955.89101078718431
 31
0.0
 12
847.49368714957188
 22
-955.47434412051746
 32
0.0
 13
847.49368714957188
 23
-955.47434412051746
 33
0.0
  0
INSERT
  5
C0
  8
0
  2
*U70
 10
0.0
 20
0.0
 30
0.0
  0
POINT
  5
C1
  8
DEFPOINTS
 62
     0
 10
795.493687149572
 20
-920.99997034924195
 30
0.0
  0
POINT
  5
C2
  8
DEFPOINTS
 62
     0
 10
847.49368714957188
 20
-920.99997034924195
 30
0.0
  0
POINT
  5
C3
  8
DEFPOINTS
 62
     0
 10
847.49368714957188
 20
-955.47434412051746
 30
0.0
  0
ENDBLK
  5
B9
  8
0
  0
BLOCK
  8
0
  2
*D2
 70
     1
 10
0.0
 20
0.0
 30
0.0
  3
*D2
  1

  0
LINE
  5
126
  8
0
 62
     0
 10
806.76868714957163
 20
888.27942421903117
 30
0.0
 11
571.27250578783605
 21
888.2794242190314
 31
0.0
  0
LINE
  5
127
  8
0
 62
     0
 10
806.76868714957163
 20
787.77942421903106
 30
0.0
 11
571.27250578783605
 21
787.77942421903106
 31
0.0
  0
LINE
  5
128
  8
0
 62
     0
 10
572.52250578783605
 20
885.7794242190314
 30
0.0
 11
572.52250578783605
 21
790.27942421903094
 31
0.0
  0
SOLID
  5
129
  8
0
 62
     0
 10
572.10583912116931
 20
885.7794242190314
 30
0.0
 11
572.93917245450268
 21
885.7794242190314
 31
0.0
 12
572.52250578783605
 22
888.2794242190314
 32
0.0
 13
572.52250578783605
 23
888.2794242190314
 33
0.0
  0
SOLID
  5
12A
  8
0
 62
     0
 10
572.10583912116931
 20
790.27942421903094
 30
0.0
 11
572.93917245450268
 21
790.27942421903094
 31
0.0
 12
572.52250578783605
 22
787.77942421903106
 32
0.0
 13
572.52250578783605
 23
787.77942421903106
 33
0.0
  0
INSERT
  5
12B
  8
0
  2
*U71
 10
0.0
 20
0.0
 30
0.0
  0
POINT
  5
12C
  8
DEFPOINTS
 62
     0
 10
807.39368714957163
 20
888.27942421903117
 30
0.0
  0
POINT
  5
12D
  8
DEFPOINTS
 62
     0
 10
807.39368714957163
 20
787.77942421903106
 30
0.0
  0
POINT
  5
12E
  8
DEFPOINTS
 62
     0
 10
572.52250578783605
 20
787.77942421903106
 30
0.0
  0
ENDBLK
  5
124
  8
0
  0
BLOCK
  8
0
  2
*D3
 70
     1
 10
0.0
 20
0.0
 30
0.0
  3
*D3
  1

  0
LINE
  5
146
  8
0
 62
     0
 10
873.71868714957213
 20
795.77942421903117
 30
0.0
 11
1000.14189591993
 21
795.77942421903117
 31
0.0
  0
LINE
  5
147
  8
0
 62
     0
 10
873.71868714957213
 20
880.27942421903117
 30
0.0
 11
1000.14189591993
 21
880.27942421903117
 31
0.0
  0
LINE
  5
148
  8
0
 62
     0
 10
998.89189591992988
 20
798.27942421903094
 30
0.0
 11
998.89189591992988
 21
877.77942421903117
 31
0.0
  0
SOLID
  5
149
  8
0
 62
     0
 10
998.47522925326325
 20
798.27942421903094
 30
0.0
 11
999.30856258659639
 21
798.27942421903094
 31
0.0
 12
998.89189591992988
 22
795.77942421903117
 32
0.0
 13
998.89189591992988
 23
795.77942421903117
 33
0.0
  0
SOLID
  5
14A
  8
0
 62
     0
 10
998.47522925326325
 20
877.77942421903117
 30
0.0
 11
999.30856258659639
 21
877.77942421903117
 31
0.0
 12
998.89189591992988
 22
880.27942421903117
 32
0.0
 13
998.89189591992988
 23
880.27942421903117
 33
0.0
  0
INSERT
  5
14B
  8
0
  2
*U72
 10
0.0
 20
0.0
 30
0.0
  0
POINT
  5
14C
  8
DEFPOINTS
 62
     0
 10
873.09368714957156
 20
795.77942421903117
 30
0.0
  0
POINT
  5
14D
  8
DEFPOINTS
 62
     0
 10
873.09368714957156
 20
880.27942421903117
 30
0.0
  0
POINT
  5
14E
  8
DEFPOINTS
 62
     0
 10
998.89189591992988
 20
880.27942421903117
 30
0.0
  0
ENDBLK
  5
144
  8
0
  0
BLOCK
  8
0
  2
*D4
 70
     1
 10
0.0
 20
0.0
 30
0.0
  3
*D4
  1

  0
LINE
  5
16C
  8
0
 62
     0
 10
897.21868714957202
 20
772.77942421903094
 30
0.0
 11
1248.217956764802
 21
772.77942421903094
 31
0.0
  0
LINE
  5
16D
  8
0
 62
     0
 10
897.21868714957202
 20
652.27942421903083
 30
0.0
 11
1248.217956764802
 21
652.27942421903083
 31
0.0
  0
LINE
  5
16E
  8
0
 62
     0
 10
1246.967956764802
 20
770.27942421903117
 30
0.0
 11
1246.967956764802
 21
654.77942421903106
 31
0.0
  0
SOLID
  5
16F
  8
0
 62
     0
 10
1246.551290098135
 20
770.27942421903117
 30
0.0
 11
1247.3846234314681
 21
770.27942421903117
 31
0.0
 12
1246.967956764802
 22
772.77942421903094
 32
0.0
 13
1246.967956764802
 23
772.77942421903094
 33
0.0
  0
SOLID
  5
170
  8
0
 62
     0
 10
1246.551290098135
 20
654.77942421903106
 30
0.0
 11
1247.3846234314681
 21
654.77942421903106
 31
0.0
 12
1246.967956764802
 22
652.27942421903083
 32
0.0
 13
1246.967956764802
 23
652.27942421903083
 33
0.0
  0
INSERT
  5
171
  8
0
  2
*U73
 10
0.0
 20
0.0
 30
0.0
  0
POINT
  5
172
  8
DEFPOINTS
 62
     0
 10
896.59368714957213
 20
772.77942421903094
 30
0.0
  0
POINT
  5
173
  8
DEFPOINTS
 62
     0
 10
896.59368714957213
 20
652.27942421903083
 30
0.0
  0
POINT
  5
174
  8
DEFPOINTS
 62
     0
 10
1246.967956764802
 20
652.27942421903083
 30
0.0
  0
ENDBLK
  5
16A
  8
0
  0
BLOCK
  8
0
  2
*D5
 70
     1
 10
0.0
 20
0.0
 30
0.0
  3
*D5
  1

  0
LINE
  5
196
  8
0
 62
     0
 10
595.62480985295315
 20
762.52942421903094
 30
0.0
 11
646.06763579177175
 21
762.52942421903094
 31
0.0
  0
LINE
  5
197
  8
0
 62
     0
 10
596.56476953617755
 20
662.52942421903083
 30
0.0
 11
646.06763579177175
 21
662.52942421903083
 31
0.0
  0
LINE
  5
198
  8
0
 62
     0
 10
644.81763579177175
 20
760.02942421903117
 30
0.0
 11
644.81763579177175
 21
665.02942421903106
 31
0.0
  0
SOLID
  5
199
  8
0
 62
     0
 10
644.40096912510523
 20
760.02942421903117
 30
0.0
 11
645.23430245843849
 21
760.02942421903117
 31
0.0
 12
644.81763579177175
 22
762.52942421903094
 32
0.0
 13
644.81763579177175
 23
762.52942421903094
 33
0.0
  0
SOLID
  5
19A
  8
0
 62
     0
 10
644.40096912510523
 20
665.02942421903106
 30
0.0
 11
645.23430245843849
 21
665.02942421903106
 31
0.0
 12
644.81763579177175
 22
662.52942421903083
 32
0.0
 13
644.81763579177175
 23
662.52942421903083
 33
0.0
  0
INSERT
  5
19B
  8
0
  2
*U74
 10
0.0
 20
0.0
 30
0.0
  0
POINT
  5
19C
  8
DEFPOINTS
 62
     0
 10
594.99980985295315
 20
762.52942421903094
 30
0.0
  0
POINT
  5
19D
  8
DEFPOINTS
 62
     0
 10
595.93976953617766
 20
662.52942421903083
 30
0.0
  0
POINT
  5
19E
  8
DEFPOINTS
 62
     0
 10
644.81763579177175
 20
662.52942421903083
 30
0.0
  0
ENDBLK
  5
18A
  8
0
  0
BLOCK
  8
0
  2
*D6
 70
     1
 10
0.0
 20
0.0
 30
0.0
  3
*D6
  1

  0
LINE
  5
1B5
  8
0
 62
     0
 10
798.39368714957186
 20
651.65442421903106
 30
0.0
 11
798.39368714957186
 21
522.2469764689572
 31
0.0
  0
LINE
  5
1B6
  8
0
 62
     0
 10
896.59368714957213
 20
651.65442421903106
 30
0.0
 11
896.59368714957213
 21
522.2469764689572
 31
0.0
  0
LINE
  5
1B7
  8
0
 62
     0
 10
800.89368714957163
 20
523.4969764689572
 30
0.0
 11
894.09368714957202
 21
523.4969764689572
 31
0.0
  0
SOLID
  5
1B8
  8
0
 62
     0
 10
800.89368714957163
 20
523.91364313562383
 30
0.0
 11
800.89368714957163
 21
523.08030980229057
 31
0.0
 12
798.39368714957186
 22
523.4969764689572
 32
0.0
 13
798.39368714957186
 23
523.4969764689572
 33
0.0
  0
SOLID
  5
1B9
  8
0
 62
     0
 10
894.09368714957202
 20
523.91364313562383
 30
0.0
 11
894.09368714957202
 21
523.08030980229057
 31
0.0
 12
896.59368714957213
 22
523.4969764689572
 32
0.0
 13
896.59368714957213
 23
523.4969764689572
 33
0.0
  0
INSERT
  5
1BA
  8
0
  2
*U75
 10
0.0
 20
0.0
 30
0.0
  0
POINT
  5
1BB
  8
DEFPOINTS
 62
     0
 10
798.39368714957186
 20
652.27942421903083
 30
0.0
  0
POINT
  5
1BC
  8
DEFPOINTS
 62
     0
 10
896.59368714957213
 20
652.27942421903083
 30
0.0
  0
POINT
  5
1BD
  8
DEFPOINTS
 62
     0
 10
896.59368714957213
 20
523.4969764689572
 30
0.0
  0
ENDBLK
  5
1B3
  8
0
  0
BLOCK
  8
0
  2
*D7
 70
     1
 10
0.0
 20
0.0
 30
0.0
  3
*D7
  1

  0
LINE
  5
2AA
  8
0
 62
     0
 10
2051.4532597059542
 20
-137.3455757809688
 30
0.0
 11
2051.4532597059542
 21
-186.2491279180631
 31
0.0
  0
LINE
  5
2AB
  8
0
 62
     0
 10
2391.4532597059551
 20
-137.3455757809688
 30
0.0
 11
2391.4532597059551
 21
-186.2491279180631
 31
0.0
  0
LINE
  5
2AC
  8
0
 62
     0
 10
2053.9532597059551
 20
-184.9991279180631
 30
0.0
 11
2388.9532597059551
 21
-184.9991279180631
 31
0.0
  0
SOLID
  5
2AD
  8
0
 62
     0
 10
2053.9532597059551
 20
-184.58246125139641
 30
0.0
 11
2053.9532597059551
 21
-185.4157945847297
 31
0.0
 12
2051.4532597059542
 22
-184.9991279180631
 32
0.0
 13
2051.4532597059542
 23
-184.9991279180631
 33
0.0
  0
SOLID
  5
2AE
  8
0
 62
     0
 10
2388.9532597059551
 20
-184.58246125139641
 30
0.0
 11
2388.9532597059551
 21
-185.4157945847297
 31
0.0
 12
2391.4532597059551
 22
-184.9991279180631
 32
0.0
 13
2391.4532597059551
 23
-184.9991279180631
 33
0.0
  0
INSERT
  5
2AF
  8
0
  2
*U76
 10
0.0
 20
0.0
 30
0.0
  0
POINT
  5
2B0
  8
DEFPOINTS
 62
     0
 10
2051.4532597059542
 20
-136.7205757809688
 30
0.0
  0
POINT
  5
2B1
  8
DEFPOINTS
 62
     0
 10
2391.4532597059551
 20
-136.7205757809688
 30
0.0
  0
POINT
  5
2B2
  8
DEFPOINTS
 62
     0
 10
2391.4532597059551
 20
-184.9991279180631
 30
0.0
  0
ENDBLK
  5
2A8
  8
0
  0
BLOCK
  8
0
  2
*D8
 70
     1
 10
0.0
 20
0.0
 30
0.0
  3
*D8
  1

  0
LINE
  5
377
  8
0
 62
     0
 10
677.493687149572
 20
913.90442421903117
 30
0.0
 11
677.493687149572
 21
1101.0546372288611
 31
0.0
  0
LINE
  5
378
  8
0
 62
     0
 10
1017.493687149572
 20
913.90442421903117
 30
0.0
 11
1017.493687149572
 21
1101.0546372288611
 31
0.0
  0
LINE
  5
379
  8
0
 62
     0
 10
679.99368714957177
 20
1099.8046372288611
 30
0.0
 11
1014.993687149572
 21
1099.8046372288611
 31
0.0
  0
SOLID
  5
37A
  8
0
 62
     0
 10
679.99368714957177
 20
1100.2213038955269
 30
0.0
 11
679.99368714957177
 21
1099.3879705621939
 31
0.0
 12
677.493687149572
 22
1099.8046372288611
 32
0.0
 13
677.493687149572
 23
1099.8046372288611
 33
0.0
  0
SOLID
  5
37B
  8
0
 62
     0
 10
1014.993687149572
 20
1100.2213038955269
 30
0.0
 11
1014.993687149572
 21
1099.3879705621939
 31
0.0
 12
1017.493687149572
 22
1099.8046372288611
 32
0.0
 13
1017.493687149572
 23
1099.8046372288611
 33
0.0
  0
INSERT
  5
37C
  8
0
  2
*U79
 10
0.0
 20
0.0
 30
0.0
  0
POINT
  5
37D
  8
DEFPOINTS
 62
     0
 10
677.493687149572
 20
913.27942421903117
 30
0.0
  0
POINT
  5
37E
  8
DEFPOINTS
 62
     0
 10
1017.493687149572
 20
913.27942421903117
 30
0.0
  0
POINT
  5
37F
  8
DEFPOINTS
 62
     0
 10
1017.493687149572
 20
1099.8046372288611
 30
0.0
  0
ENDBLK
  5
375
  8
0
  0
BLOCK
  8
0
  2
*D9
 70
     1
 10
0.0
 20
0.0
 30
0.0
  3
*D9
  1

  0
LINE
  5
38F
  8
0
 62
     0
 10
677.493687149572
 20
913.90442421903117
 30
0.0
 11
677.493687149572
 21
999.6759951160484
 31
0.0
  0
LINE
  5
390
  8
0
 62
     0
 10
785.493687149572
 20
913.90442421903117
 30
0.0
 11
785.493687149572
 21
999.6759951160484
 31
0.0
  0
LINE
  5
391
  8
0
 62
     0
 10
679.99368714957177
 20
998.42599511604828
 30
0.0
 11
782.993687149572
 21
998.42599511604828
 31
0.0
  0
SOLID
  5
392
  8
0
 62
     0
 10
679.99368714957177
 20
998.84266178271457
 30
0.0
 11
679.99368714957177
 21
998.00932844938154
 31
0.0
 12
677.493687149572
 22
998.42599511604828
 32
0.0
 13
677.493687149572
 23
998.42599511604828
 33
0.0
  0
SOLID
  5
393
  8
0
 62
     0
 10
782.993687149572
 20
998.84266178271457
 30
0.0
 11
782.993687149572
 21
998.00932844938154
 31
0.0
 12
785.493687149572
 22
998.42599511604828
 32
0.0
 13
785.493687149572
 23
998.42599511604828
 33
0.0
  0
INSERT
  5
394
  8
0
  2
*U80
 10
0.0
 20
0.0
 30
0.0
  0
POINT
  5
395
  8
DEFPOINTS
 62
     0
 10
677.493687149572
 20
913.27942421903117
 30
0.0
  0
POINT
  5
396
  8
DEFPOINTS
 62
     0
 10
785.493687149572
 20
913.27942421903117
 30
0.0
  0
POINT
  5
397
  8
DEFPOINTS
 62
     0
 10
785.493687149572
 20
998.42599511604828
 30
0.0
  0
ENDBLK
  5
38D
  8
0
  0
BLOCK
  8
0
  2
*D10
 70
     1
 10
0.0
 20
0.0
 30
0.0
  3
*D10
  1

  0
LINE
  5
3A7
  8
0
 62
     0
 10
807.39368714957163
 20
880.90442421903117
 30
0.0
 11
807.39368714957163
 21
954.92300378105404
 31
0.0
  0
LINE
  5
3A8
  8
0
 62
     0
 10
887.59368714957168
 20
880.90442421903094
 30
0.0
 11
887.59368714957168
 21
954.92300378105404
 31
0.0
  0
LINE
  5
3A9
  8
0
 62
     0
 10
809.89368714957163
 20
953.67300378105392
 30
0.0
 11
885.09368714957168
 21
953.67300378105392
 31
0.0
  0
SOLID
  5
3AA
  8
0
 62
     0
 10
809.89368714957163
 20
954.08967044772032
 30
0.0
 11
809.89368714957163
 21
953.25633711438718
 31
0.0
 12
807.39368714957163
 22
953.67300378105392
 32
0.0
 13
807.39368714957163
 23
953.67300378105392
 33
0.0
  0
SOLID
  5
3AB
  8
0
 62
     0
 10
885.09368714957168
 20
954.08967044772032
 30
0.0
 11
885.09368714957168
 21
953.25633711438718
 31
0.0
 12
887.59368714957168
 22
953.67300378105392
 32
0.0
 13
887.59368714957168
 23
953.67300378105392
 33
0.0
  0
INSERT
  5
3AC
  8
0
  2
*U81
 10
0.0
 20
0.0
 30
0.0
  0
POINT
  5
3AD
  8
DEFPOINTS
 62
     0
 10
807.39368714957163
 20
880.27942421903117
 30
0.0
  0
POINT
  5
3AE
  8
DEFPOINTS
 62
     0
 10
887.59368714957168
 20
880.27942421903094
 30
0.0
  0
POINT
  5
3AF
  8
DEFPOINTS
 62
     0
 10
887.59368714957168
 20
953.67300378105392
 30
0.0
  0
ENDBLK
  5
3A5
  8
0
  0
BLOCK
  8
0
  2
*D11
 70
     1
 10
0.0
 20
0.0
 30
0.0
  3
*D11
  1

  0
LINE
  5
3BF
  8
0
 62
     0
 10
814.76868714957163
 20
888.27942421903117
 30
0.0
 11
711.64276450053683
 21
888.27942421903117
 31
0.0
  0
LINE
  5
3C0
  8
0
 62
     0
 10
814.76868714957163
 20
787.77942421903106
 30
0.0
 11
711.64276450053683
 21
787.77942421903106
 31
0.0
  0
LINE
  5
3C1
  8
0
 62
     0
 10
712.89276450053683
 20
885.77942421903117
 30
0.0
 11
712.89276450053683
 21
790.27942421903106
 31
0.0
  0
SOLID
  5
3C2
  8
0
 62
     0
 10
712.47609783387009
 20
885.77942421903117
 30
0.0
 11
713.30943116720346
 21
885.77942421903117
 31
0.0
 12
712.89276450053683
 22
888.27942421903117
 32
0.0
 13
712.89276450053683
 23
888.27942421903117
 33
0.0
  0
SOLID
  5
3C3
  8
0
 62
     0
 10
712.47609783387009
 20
790.27942421903106
 30
0.0
 11
713.30943116720346
 21
790.27942421903106
 31
0.0
 12
712.89276450053683
 22
787.77942421903106
 32
0.0
 13
712.89276450053683
 23
787.77942421903106
 33
0.0
  0
INSERT
  5
3C4
  8
0
  2
*U82
 10
0.0
 20
0.0
 30
0.0
  0
POINT
  5
3C5
  8
DEFPOINTS
 62
     0
 10
815.39368714957163
 20
888.27942421903117
 30
0.0
  0
POINT
  5
3C6
  8
DEFPOINTS
 62
     0
 10
815.39368714957163
 20
787.77942421903106
 30
0.0
  0
POINT
  5
3C7
  8
DEFPOINTS
 62
     0
 10
712.89276450053683
 20
787.77942421903106
 30
0.0
  0
ENDBLK
  5
3BD
  8
0
  0
BLOCK
  8
0
  2
*D12
 70
     1
 10
0.0
 20
0.0
 30
0.0
  3
*D12
  1

  0
LINE
  5
3D7
  8
0
 62
     0
 10
821.89368714957186
 20
880.15442421903117
 30
0.0
 11
821.89368714957186
 21
927.68873761035502
 31
0.0
  0
LINE
  5
3D8
  8
0
 62
     0
 10
873.09368714957156
 20
880.15442421903094
 30
0.0
 11
873.09368714957156
 21
927.68873761035502
 31
0.0
  0
LINE
  5
3D9
  8
0
 62
     0
 10
824.39368714957163
 20
926.43873761035525
 30
0.0
 11
870.59368714957168
 21
926.43873761035525
 31
0.0
  0
SOLID
  5
3DA
  8
0
 62
     0
 10
824.39368714957163
 20
926.85540427702165
 30
0.0
 11
824.39368714957163
 21
926.02207094368839
 31
0.0
 12
821.89368714957186
 22
926.43873761035525
 32
0.0
 13
821.89368714957186
 23
926.43873761035525
 33
0.0
  0
SOLID
  5
3DB
  8
0
 62
     0
 10
870.59368714957168
 20
926.85540427702165
 30
0.0
 11
870.59368714957168
 21
926.02207094368839
 31
0.0
 12
873.09368714957156
 22
926.43873761035525
 32
0.0
 13
873.09368714957156
 23
926.43873761035525
 33
0.0
  0
INSERT
  5
3DC
  8
0
  2
*U83
 10
0.0
 20
0.0
 30
0.0
  0
POINT
  5
3DD
  8
DEFPOINTS
 62
     0
 10
821.89368714957186
 20
879.52942421903117
 30
0.0
  0
POINT
  5
3DE
  8
DEFPOINTS
 62
     0
 10
873.09368714957156
 20
879.52942421903094
 30
0.0
  0
POINT
  5
3DF
  8
DEFPOINTS
 62
     0
 10
873.09368714957156
 20
926.43873761035525
 30
0.0
  0
ENDBLK
  5
3D5
  8
0
  0
BLOCK
  8
0
  2
*D13
 70
     1
 10
0.0
 20
0.0
 30
0.0
  3
*D13
  1

  0
LINE
  5
3EF
  8
0
 62
     0
 10
870.71868714957156
 20
882.52942421903094
 30
0.0
 11
919.36977280793508
 21
882.52942421903094
 31
0.0
  0
LINE
  5
3F0
  8
0
 62
     0
 10
870.71868714957156
 20
793.52942421903117
 30
0.0
 11
919.36977280793508
 21
793.52942421903117
 31
0.0
  0
LINE
  5
3F1
  8
0
 62
     0
 10
918.11977280793496
 20
880.02942421903106
 30
0.0
 11
918.11977280793496
 21
796.02942421903094
 31
0.0
  0
SOLID
  5
3F2
  8
0
 62
     0
 10
917.70310614126845
 20
880.02942421903106
 30
0.0
 11
918.53643947460148
 21
880.02942421903106
 31
0.0
 12
918.11977280793496
 22
882.52942421903094
 32
0.0
 13
918.11977280793496
 23
882.52942421903094
 33
0.0
  0
SOLID
  5
3F3
  8
0
 62
     0
 10
917.70310614126845
 20
796.02942421903094
 30
0.0
 11
918.53643947460148
 21
796.02942421903094
 31
0.0
 12
918.11977280793496
 22
793.52942421903117
 32
0.0
 13
918.11977280793496
 23
793.52942421903117
 33
0.0
  0
INSERT
  5
3F4
  8
0
  2
*U84
 10
0.0
 20
0.0
 30
0.0
  0
POINT
  5
3F5
  8
DEFPOINTS
 62
     0
 10
870.09368714957156
 20
882.52942421903094
 30
0.0
  0
POINT
  5
3F6
  8
DEFPOINTS
 62
     0
 10
870.09368714957156
 20
793.52942421903117
 30
0.0
  0
POINT
  5
3F7
  8
DEFPOINTS
 62
     0
 10
918.11977280793496
 20
793.52942421903117
 30
0.0
  0
ENDBLK
  5
3ED
  8
0
  0
BLOCK
  8
0
  2
*D14
 70
     1
 10
0.0
 20
0.0
 30
0.0
  3
*D14
  1

  0
LINE
  5
407
  8
0
 62
     0
 10
1018.118687149572
 20
913.27942421903117
 30
0.0
 11
1055.620074417347
 21
913.27942421903117
 31
0.0
  0
LINE
  5
408
  8
0
 62
     0
 10
1018.118687149572
 20
652.27942421903106
 30
0.0
 11
1055.620074417347
 21
652.27942421903106
 31
0.0
  0
LINE
  5
409
  8
0
 62
     0
 10
1054.370074417347
 20
910.77942421903117
 30
0.0
 11
1054.370074417347
 21
654.77942421903106
 31
0.0
  0
SOLID
  5
40A
  8
0
 62
     0
 10
1053.953407750681
 20
910.77942421903117
 30
0.0
 11
1054.786741084014
 21
910.77942421903117
 31
0.0
 12
1054.370074417347
 22
913.27942421903117
 32
0.0
 13
1054.370074417347
 23
913.27942421903117
 33
0.0
  0
SOLID
  5
40B
  8
0
 62
     0
 10
1053.953407750681
 20
654.77942421903106
 30
0.0
 11
1054.786741084014
 21
654.77942421903106
 31
0.0
 12
1054.370074417347
 22
652.27942421903106
 32
0.0
 13
1054.370074417347
 23
652.27942421903106
 33
0.0
  0
INSERT
  5
40C
  8
0
  2
*U85
 10
0.0
 20
0.0
 30
0.0
  0
POINT
  5
40D
  8
DEFPOINTS
 62
     0
 10
1017.493687149572
 20
913.27942421903117
 30
0.0
  0
POINT
  5
40E
  8
DEFPOINTS
 62
     0
 10
1017.493687149572
 20
652.27942421903106
 30
0.0
  0
POINT
  5
40F
  8
DEFPOINTS
 62
     0
 10
1054.370074417347
 20
652.27942421903106
 30
0.0
  0
ENDBLK
  5
405
  8
0
  0
BLOCK
  8
0
  2
*D15
 70
     1
 10
0.0
 20
0.0
 30
0.0
  3
*D15
  1

  0
LINE
  5
41F
  8
0
 62
     0
 10
805.76868714957197
 20
772.77942421903094
 30
0.0
 11
714.19746402454984
 21
772.77942421903094
 31
0.0
  0
LINE
  5
420
  8
0
 62
     0
 10
805.76868714957163
 20
652.27942421903083
 30
0.0
 11
714.19746402454973
 21
652.27942421903094
 31
0.0
  0
LINE
  5
421
  8
0
 62
     0
 10
715.44746402454984
 20
770.27942421903117
 30
0.0
 11
715.44746402454973
 21
654.77942421903106
 31
0.0
  0
SOLID
  5
422
  8
0
 62
     0
 10
715.03079735788333
 20
770.27942421903117
 30
0.0
 11
715.86413069121659
 21
770.27942421903117
 31
0.0
 12
715.44746402454984
 22
772.77942421903094
 32
0.0
 13
715.44746402454984
 23
772.77942421903094
 33
0.0
  0
SOLID
  5
423
  8
0
 62
     0
 10
715.03079735788333
 20
654.77942421903106
 30
0.0
 11
715.86413069121647
 21
654.77942421903106
 31
0.0
 12
715.44746402454973
 22
652.27942421903094
 32
0.0
 13
715.44746402454973
 23
652.27942421903094
 33
0.0
  0
INSERT
  5
424
  8
0
  2
*U86
 10
0.0
 20
0.0
 30
0.0
  0
POINT
  5
425
  8
DEFPOINTS
 62
     0
 10
806.39368714957209
 20
772.77942421903094
 30
0.0
  0
POINT
  5
426
  8
DEFPOINTS
 62
     0
 10
806.39368714957163
 20
652.27942421903083
 30
0.0
  0
POINT
  5
427
  8
DEFPOINTS
 62
     0
 10
715.44746402454973
 20
652.27942421903094
 30
0.0
  0
ENDBLK
  5
41D
  8
0
  0
BLOCK
  8
0
  2
*D16
 70
     1
 10
0.0
 20
0.0
 30
0.0
  3
*D16
  1

  0
LINE
  5
437
  8
0
 62
     0
 10
814.86868714957188
 20
763.02942421903094
 30
0.0
 11
761.88506109606351
 21
763.02942421903106
 31
0.0
  0
LINE
  5
438
  8
0
 62
     0
 10
814.86868714957166
 20
662.02942421903083
 30
0.0
 11
761.88506109606351
 21
662.02942421903094
 31
0.0
  0
LINE
  5
439
  8
0
 62
     0
 10
763.13506109606351
 20
760.52942421903117
 30
0.0
 11
763.13506109606351
 21
664.52942421903094
 31
0.0
  0
SOLID
  5
43A
  8
0
 62
     0
 10
762.71839442939665
 20
760.52942421903117
 30
0.0
 11
763.55172776273014
 21
760.52942421903117
 31
0.0
 12
763.13506109606351
 22
763.02942421903106
 32
0.0
 13
763.13506109606351
 23
763.02942421903106
 33
0.0
  0
SOLID
  5
43B
  8
0
 62
     0
 10
762.71839442939665
 20
664.52942421903094
 30
0.0
 11
763.55172776273014
 21
664.52942421903094
 31
0.0
 12
763.13506109606351
 22
662.02942421903094
 32
0.0
 13
763.13506109606351
 23
662.02942421903094
 33
0.0
  0
INSERT
  5
43C
  8
0
  2
*U87
 10
0.0
 20
0.0
 30
0.0
  0
POINT
  5
43D
  8
DEFPOINTS
 62
     0
 10
815.49368714957188
 20
763.02942421903094
 30
0.0
  0
POINT
  5
43E
  8
DEFPOINTS
 62
     0
 10
815.49368714957166
 20
662.02942421903083
 30
0.0
  0
POINT
  5
43F
  8
DEFPOINTS
 62
     0
 10
763.13506109606351
 20
662.02942421903094
 30
0.0
  0
ENDBLK
  5
435
  8
0
  0
BLOCK
  8
0
  2
*D17
 70
     1
 10
0.0
 20
0.0
 30
0.0
  3
*D17
  1

  0
LINE
  5
44F
  8
0
 62
     0
 10
798.39368714957163
 20
659.65442421903083
 30
0.0
 11
798.39368714957163
 21
544.76003629624483
 31
0.0
  0
LINE
  5
450
  8
0
 62
     0
 10
896.59368714957213
 20
659.65442421903106
 30
0.0
 11
896.59368714957213
 21
544.76003629624483
 31
0.0
  0
LINE
  5
451
  8
0
 62
     0
 10
800.89368714957163
 20
546.01003629624483
 30
0.0
 11
894.09368714957202
 21
546.01003629624483
 31
0.0
  0
SOLID
  5
452
  8
0
 62
     0
 10
800.89368714957163
 20
546.42670296291135
 30
0.0
 11
800.89368714957163
 21
545.59336962957798
 31
0.0
 12
798.39368714957163
 22
546.01003629624483
 32
0.0
 13
798.39368714957163
 23
546.01003629624483
 33
0.0
  0
SOLID
  5
453
  8
0
 62
     0
 10
894.09368714957202
 20
546.42670296291135
 30
0.0
 11
894.09368714957202
 21
545.59336962957798
 31
0.0
 12
896.59368714957213
 22
546.01003629624483
 32
0.0
 13
896.59368714957213
 23
546.01003629624483
 33
0.0
  0
INSERT
  5
454
  8
0
  2
*U88
 10
0.0
 20
0.0
 30
0.0
  0
POINT
  5
455
  8
DEFPOINTS
 62
     0
 10
798.39368714957163
 20
660.27942421903083
 30
0.0
  0
POINT
  5
456
  8
DEFPOINTS
 62
     0
 10
896.59368714957213
 20
660.27942421903106
 30
0.0
  0
POINT
  5
457
  8
DEFPOINTS
 62
     0
 10
896.59368714957213
 20
546.01003629624483
 30
0.0
  0
ENDBLK
  5
44D
  8
0
  0
BLOCK
  8
0
  2
*D18
 70
     1
 10
0.0
 20
0.0
 30
0.0
  3
*D18
  1

  0
LINE
  5
999
  8
0
 62
     0
 10
807.49368714957154
 20
669.40442421903094
 30
0.0
 11
807.49368714957154
 21
577.95179976910003
 31
0.0
  0
LINE
  5
99A
  8
0
 62
     0
 10
887.49368714957188
 20
669.40442421903094
 30
0.0
 11
887.49368714957188
 21
577.95179976910003
 31
0.0
  0
LINE
  5
99B
  8
0
 62
     0
 10
809.99368714957166
 20
579.20179976910003
 30
0.0
 11
884.99368714957188
 21
579.20179976910003
 31
0.0
  0
SOLID
  5
99C
  8
0
 62
     0
 10
809.99368714957166
 20
579.61846643576655
 30
0.0
 11
809.99368714957166
 21
578.78513310243341
 31
0.0
 12
807.49368714957154
 22
579.20179976910003
 32
0.0
 13
807.49368714957154
 23
579.20179976910003
 33
0.0
  0
SOLID
  5
99D
  8
0
 62
     0
 10
884.99368714957188
 20
579.61846643576655
 30
0.0
 11
884.99368714957188
 21
578.78513310243341
 31
0.0
 12
887.49368714957188
 22
579.20179976910003
 32
0.0
 13
887.49368714957188
 23
579.20179976910003
 33
0.0
  0
INSERT
  5
99E
  8
0
  2
*U135
 10
0.0
 20
0.0
 30
0.0
  0
POINT
  5
99F
  8
DEFPOINTS
 62
     0
 10
807.49368714957154
 20
670.02942421903094
 30
0.0
  0
POINT
  5
9A0
  8
DEFPOINTS
 62
     0
 10
887.49368714957188
 20
670.02942421903094
 30
0.0
  0
POINT
  5
9A1
  8
DEFPOINTS
 62
     0
 10
887.49368714957188
 20
579.20179976910003
 30
0.0
  0
ENDBLK
  5
465
  8
0
  0
BLOCK
  8
0
  2
*D19
 70
     1
 10
0.0
 20
0.0
 30
0.0
  3
*D19
  1

  0
LINE
  5
47F
  8
0
 62
     0
 10
981.618687149572
 20
604.27942421903117
 30
0.0
 11
1058.297480190442
 21
604.27942421903117
 31
0.0
  0
LINE
  5
480
  8
0
 62
     0
 10
981.61868714957245
 20
333.27942421903123
 30
0.0
 11
1058.297480190442
 21
333.27942421903123
 31
0.0
  0
LINE
  5
481
  8
0
 62
     0
 10
1057.047480190442
 20
601.77942421903106
 30
0.0
 11
1057.047480190442
 21
335.77942421903123
 31
0.0
  0
SOLID
  5
482
  8
0
 62
     0
 10
1056.630813523775
 20
601.77942421903106
 30
0.0
 11
1057.464146857109
 21
601.77942421903106
 31
0.0
 12
1057.047480190442
 22
604.27942421903117
 32
0.0
 13
1057.047480190442
 23
604.27942421903117
 33
0.0
  0
SOLID
  5
483
  8
0
 62
     0
 10
1056.630813523775
 20
335.77942421903123
 30
0.0
 11
1057.464146857109
 21
335.77942421903123
 31
0.0
 12
1057.047480190442
 22
333.27942421903123
 32
0.0
 13
1057.047480190442
 23
333.27942421903123
 33
0.0
  0
INSERT
  5
484
  8
0
  2
*U89
 10
0.0
 20
0.0
 30
0.0
  0
POINT
  5
485
  8
DEFPOINTS
 62
     0
 10
980.993687149572
 20
604.27942421903117
 30
0.0
  0
POINT
  5
486
  8
DEFPOINTS
 62
     0
 10
980.99368714957245
 20
333.27942421903123
 30
0.0
  0
POINT
  5
487
  8
DEFPOINTS
 62
     0
 10
1057.047480190442
 20
333.27942421903123
 30
0.0
  0
ENDBLK
  5
47D
  8
0
  0
BLOCK
  8
0
  2
*D20
 70
     1
 10
0.0
 20
0.0
 30
0.0
  3
*D20
  1

  0
LINE
  5
497
  8
0
 62
     0
 10
989.61868714957166
 20
320.27942421903123
 30
0.0
 11
1126.057930190138
 21
320.27942421903123
 31
0.0
  0
LINE
  5
498
  8
0
 62
     0
 10
989.61868714957166
 20
617.27942421903106
 30
0.0
 11
1126.057930190138
 21
617.27942421903106
 31
0.0
  0
LINE
  5
499
  8
0
 62
     0
 10
1124.8079301901371
 20
322.77942421903123
 30
0.0
 11
1124.807930190138
 21
614.77942421903106
 31
0.0
  0
SOLID
  5
49A
  8
0
 62
     0
 10
1124.391263523471
 20
322.77942421903123
 30
0.0
 11
1125.2245968568041
 21
322.77942421903123
 31
0.0
 12
1124.8079301901371
 22
320.27942421903123
 32
0.0
 13
1124.8079301901371
 23
320.27942421903123
 33
0.0
  0
SOLID
  5
49B
  8
0
 62
     0
 10
1124.391263523471
 20
614.77942421903106
 30
0.0
 11
1125.224596856805
 21
614.77942421903106
 31
0.0
 12
1124.807930190138
 22
617.27942421903106
 32
0.0
 13
1124.807930190138
 23
617.27942421903106
 33
0.0
  0
INSERT
  5
49C
  8
0
  2
*U90
 10
0.0
 20
0.0
 30
0.0
  0
POINT
  5
49D
  8
DEFPOINTS
 62
     0
 10
988.99368714957166
 20
320.27942421903123
 30
0.0
  0
POINT
  5
49E
  8
DEFPOINTS
 62
     0
 10
988.99368714957166
 20
617.27942421903106
 30
0.0
  0
POINT
  5
49F
  8
DEFPOINTS
 62
     0
 10
1124.807930190138
 20
617.27942421903106
 30
0.0
  0
ENDBLK
  5
495
  8
0
  0
BLOCK
  8
0
  2
*D21
 70
     1
 10
0.0
 20
0.0
 30
0.0
  3
*D21
  1

  0
LINE
  5
4AF
  8
0
 62
     0
 10
710.993687149572
 20
335.65442421903123
 30
0.0
 11
710.993687149572
 21
275.65058847629371
 31
0.0
  0
LINE
  5
4B0
  8
0
 62
     0
 10
983.99368714957245
 20
335.65442421903123
 30
0.0
 11
983.99368714957245
 21
275.65058847629371
 31
0.0
  0
LINE
  5
4B1
  8
0
 62
     0
 10
713.49368714957177
 20
276.90058847629371
 30
0.0
 11
981.49368714957245
 21
276.90058847629371
 31
0.0
  0
SOLID
  5
4B2
  8
0
 62
     0
 10
713.49368714957177
 20
277.31725514296039
 30
0.0
 11
713.49368714957177
 21
276.48392180962702
 31
0.0
 12
710.993687149572
 22
276.90058847629371
 32
0.0
 13
710.993687149572
 23
276.90058847629371
 33
0.0
  0
SOLID
  5
4B3
  8
0
 62
     0
 10
981.49368714957245
 20
277.31725514296039
 30
0.0
 11
981.49368714957245
 21
276.48392180962702
 31
0.0
 12
983.99368714957245
 22
276.90058847629371
 32
0.0
 13
983.99368714957245
 23
276.90058847629371
 33
0.0
  0
INSERT
  5
4B4
  8
0
  2
*U91
 10
0.0
 20
0.0
 30
0.0
  0
POINT
  5
4B5
  8
DEFPOINTS
 62
     0
 10
710.993687149572
 20
336.27942421903123
 30
0.0
  0
POINT
  5
4B6
  8
DEFPOINTS
 62
     0
 10
983.99368714957245
 20
336.27942421903123
 30
0.0
  0
POINT
  5
4B7
  8
DEFPOINTS
 62
     0
 10
983.99368714957245
 20
276.90058847629371
 30
0.0
  0
ENDBLK
  5
4AD
  8
0
  0
BLOCK
  8
0
  2
*D22
 70
     1
 10
0.0
 20
0.0
 30
0.0
  3
*D22
  1

  0
LINE
  5
4C7
  8
0
 62
     0
 10
697.99368714957166
 20
327.65442421903123
 30
0.0
 11
697.99368714957166
 21
220.2299061757121
 31
0.0
  0
LINE
  5
4C8
  8
0
 62
     0
 10
996.99368714957166
 20
327.65442421903123
 30
0.0
 11
996.99368714957166
 21
220.2299061757121
 31
0.0
  0
LINE
  5
4C9
  8
0
 62
     0
 10
700.49368714957166
 20
221.4799061757121
 30
0.0
 11
994.49368714957166
 21
221.4799061757121
 31
0.0
  0
SOLID
  5
4CA
  8
0
 62
     0
 10
700.49368714957166
 20
221.89657284237879
 30
0.0
 11
700.49368714957166
 21
221.0632395090455
 31
0.0
 12
697.99368714957166
 22
221.4799061757121
 32
0.0
 13
697.99368714957166
 23
221.4799061757121
 33
0.0
  0
SOLID
  5
4CB
  8
0
 62
     0
 10
994.49368714957166
 20
221.89657284237879
 30
0.0
 11
994.49368714957166
 21
221.0632395090455
 31
0.0
 12
996.99368714957166
 22
221.4799061757121
 32
0.0
 13
996.99368714957166
 23
221.4799061757121
 33
0.0
  0
INSERT
  5
4CC
  8
0
  2
*U92
 10
0.0
 20
0.0
 30
0.0
  0
POINT
  5
4CD
  8
DEFPOINTS
 62
     0
 10
697.99368714957166
 20
328.27942421903123
 30
0.0
  0
POINT
  5
4CE
  8
DEFPOINTS
 62
     0
 10
996.99368714957166
 20
328.27942421903123
 30
0.0
  0
POINT
  5
4CF
  8
DEFPOINTS
 62
     0
 10
996.99368714957166
 20
221.4799061757121
 30
0.0
  0
ENDBLK
  5
4C5
  8
0
  0
BLOCK
  8
0
  2
*D23
 70
     1
 10
0.0
 20
0.0
 30
0.0
  3
*D23
  1

  0
LINE
  5
4DF
  8
0
 62
     0
 10
889.21868714957202
 20
652.27942421903106
 30
0.0
 11
944.59708430208036
 21
652.27942421903106
 31
0.0
  0
LINE
  5
4E0
  8
0
 62
     0
 10
988.36868714957166
 20
617.27942421903106
 30
0.0
 11
942.09708430208025
 21
617.27942421903106
 31
0.0
  0
LINE
  5
4E1
  8
0
 62
     0
 10
943.34708430208025
 20
649.77942421903117
 30
0.0
 11
943.34708430208025
 21
619.77942421903117
 31
0.0
  0
SOLID
  5
4E2
  8
0
 62
     0
 10
942.93041763541385
 20
649.77942421903117
 30
0.0
 11
943.76375096874733
 21
649.77942421903117
 31
0.0
 12
943.34708430208025
 22
652.27942421903106
 32
0.0
 13
943.34708430208025
 23
652.27942421903106
 33
0.0
  0
SOLID
  5
4E3
  8
0
 62
     0
 10
942.93041763541385
 20
619.77942421903117
 30
0.0
 11
943.76375096874733
 21
619.77942421903117
 31
0.0
 12
943.34708430208025
 22
617.27942421903106
 32
0.0
 13
943.34708430208025
 23
617.27942421903106
 33
0.0
  0
INSERT
  5
4E4
  8
0
  2
*U93
 10
0.0
 20
0.0
 30
0.0
  0
POINT
  5
4E5
  8
DEFPOINTS
 62
     0
 10
888.59368714957202
 20
652.27942421903106
 30
0.0
  0
POINT
  5
4E6
  8
DEFPOINTS
 62
     0
 10
988.99368714957166
 20
617.27942421903106
 30
0.0
  0
POINT
  5
4E7
  8
DEFPOINTS
 62
     0
 10
943.34708430208025
 20
617.27942421903106
 30
0.0
  0
ENDBLK
  5
4DD
  8
0
  0
BLOCK
  8
0
  2
*D24
 70
     1
 10
0.0
 20
0.0
 30
0.0
  3
*D24
  1

  0
LINE
  5
985
  8
0
 62
     0
 10
880.21868714957202
 20
787.77942421903106
 30
0.0
 11
940.59841033224075
 21
787.77942421903106
 31
0.0
  0
LINE
  5
986
  8
0
 62
     0
 10
889.21868714957202
 20
772.77942421903151
 30
0.0
 11
940.59841033224075
 21
772.77942421903151
 31
0.0
  0
LINE
  5
987
  8
0
 62
     0
 10
939.34841033224075
 20
785.27942421903094
 30
0.0
 11
939.34841033224075
 21
775.27942421903151
 31
0.0
  0
SOLID
  5
988
  8
0
 62
     0
 10
938.93174366557412
 20
785.27942421903094
 30
0.0
 11
939.76507699890726
 21
785.27942421903094
 31
0.0
 12
939.34841033224075
 22
787.77942421903106
 32
0.0
 13
939.34841033224075
 23
787.77942421903106
 33
0.0
  0
SOLID
  5
989
  8
0
 62
     0
 10
938.93174366557412
 20
775.27942421903151
 30
0.0
 11
939.76507699890726
 21
775.27942421903151
 31
0.0
 12
939.34841033224075
 22
772.77942421903151
 32
0.0
 13
939.34841033224075
 23
772.77942421903151
 33
0.0
  0
INSERT
  5
98A
  8
0
  2
*U133
 10
0.0
 20
0.0
 30
0.0
  0
POINT
  5
98B
  8
DEFPOINTS
 62
     0
 10
879.59368714957213
 20
787.77942421903106
 30
0.0
  0
POINT
  5
98C
  8
DEFPOINTS
 62
     0
 10
888.59368714957202
 20
772.77942421903151
 30
0.0
  0
POINT
  5
98D
  8
DEFPOINTS
 62
     0
 10
939.34841033224075
 20
772.77942421903151
 30
0.0
  0
ENDBLK
  5
4F5
  8
0
  0
BLOCK
  8
0
  2
*D25
 70
     1
 10
0.0
 20
0.0
 30
0.0
  3
*D25
  1

  0
LINE
  5
50F
  8
0
 62
     0
 10
878.96868714957156
 20
888.27942421903094
 30
0.0
 11
839.6510274735756
 21
888.27942421903094
 31
0.0
  0
LINE
  5
510
  8
0
 62
     0
 10
1017.493687149572
 20
913.27942421903117
 30
0.0
 11
839.6510274735756
 21
913.27942421903117
 31
0.0
  0
LINE
  5
511
  8
0
 62
     0
 10
840.9010274735756
 20
890.77942421903106
 30
0.0
 11
840.9010274735756
 21
910.77942421903117
 31
0.0
  0
SOLID
  5
512
  8
0
 62
     0
 10
840.48436080690885
 20
890.77942421903106
 30
0.0
 11
841.31769414024222
 21
890.77942421903106
 31
0.0
 12
840.9010274735756
 22
888.27942421903094
 32
0.0
 13
840.9010274735756
 23
888.27942421903094
 33
0.0
  0
SOLID
  5
513
  8
0
 62
     0
 10
840.48436080690885
 20
910.77942421903117
 30
0.0
 11
841.31769414024222
 21
910.77942421903117
 31
0.0
 12
840.9010274735756
 22
913.27942421903117
 32
0.0
 13
840.9010274735756
 23
913.27942421903117
 33
0.0
  0
INSERT
  5
514
  8
0
  2
*U94
 10
0.0
 20
0.0
 30
0.0
  0
POINT
  5
515
  8
DEFPOINTS
 62
     0
 10
879.59368714957168
 20
888.27942421903094
 30
0.0
  0
POINT
  5
516
  8
DEFPOINTS
 62
     0
 10
1018.118687149572
 20
913.27942421903117
 30
0.0
  0
POINT
  5
517
  8
DEFPOINTS
 62
     0
 10
840.9010274735756
 20
913.27942421903117
 30
0.0
  0
ENDBLK
  5
50D
  8
0
  0
BLOCK
  8
0
  2
*D26
 70
     1
 10
0.0
 20
0.0
 30
0.0
  3
*D26
  1

  0
LINE
  5
98E
  8
0
 62
     0
 10
789.93851223917352
 20
779.62109788311568
 30
0.0
 11
806.52887122724076
 21
790.15225453408323
 31
0.0
  0
INSERT
  5
98F
  8
0
  2
*U134
 10
0.0
 20
0.0
 30
0.0
  0
LINE
  5
990
  8
0
 62
     0
 10
815.39368714957175
 20
795.77942421903117
 30
0.0
 11
808.63954168493842
 21
791.49205684002311
 31
0.0
  0
SOLID
  5
991
  8
0
 62
     0
 10
806.30557084291729
 20
790.50403294369937
 30
0.0
 11
806.75217161156399
 21
789.80047612446697
 31
0.0
 12
808.63954168493842
 22
791.49205684002311
 32
0.0
 13
808.63954168493842
 23
791.49205684002311
 33
0.0
  0
POINT
  5
992
  8
DEFPOINTS
 62
     0
 10
808.63954168493842
 20
791.49205684002311
 30
0.0
  0
POINT
  5
993
  8
DEFPOINTS
 62
     0
 10
815.39368714957175
 20
795.77942421903117
 30
0.0
  0
ENDBLK
  5
522
  8
0
  0
BLOCK
  8
0
  2
*D27
 70
     1
 10
0.0
 20
0.0
 30
0.0
  3
*D27
  1

  0
LINE
  5
CB5
  8
0
 62
     0
 10
859.10359357485686
 20
806.41190269252922
 30
0.0
 11
870.46547894861772
 21
796.19510272979926
 31
0.0
  0
TEXT
  8
0
  40
2.5
  5
DC5
  62
0
  72
0
  71
0
 10
862.371
 20
802.745
 30
0.000000
  1
R3
  0
SOLID
  5
CB7
  8
0
 62
     0
 10
870.74408018964425
 20
796.50492922900423
 30
0.0
 11
870.18687770759118
 21
795.88527623059417
 31
0.0
 12
872.32443794384756
 22
794.5234952836405
 32
0.0
 13
872.32443794384756
 23
794.5234952836405
 33
0.0
  0
POINT
  5
CB8
  8
DEFPOINTS
 62
     0
 10
872.32443794384756
 20
794.5234952836405
 30
0.0
  0
POINT
  5
CB9
  8
DEFPOINTS
 62
     0
 10
870.09368714957145
 20
796.52942421903106
 30
0.0
  0
ENDBLK
  5
533
  8
0
  0
BLOCK
  8
0
  2
*D28
 70
     1
 10
0.0
 20
0.0
 30
0.0
  3
*D28
  1

  0
LINE
  5
CBA
  8
0
 62
     0
 10
861.07027295136277
 20
681.80273951270317
 30
0.0
 11
884.1281969104233
 21
667.06778290439308
 31
0.0
  0
TEXT
  8
0
  40
2.5
  5
DC6
  62
0
  72
0
  71
0
 10
864.362
 20
678.674
 30
0.000000
  1
R8
  0
SOLID
  5
CBC
  8
0
 62
     0
 10
884.35256367668387
 20
667.41888212870003
 30
0.0
 11
883.90383014416295
 21
666.71668368008613
 31
0.0
 12
886.23479225626511
 22
665.72158230683044
 32
0.0
 13
886.23479225626511
 23
665.72158230683044
 33
0.0
  0
POINT
  5
CBD
  8
DEFPOINTS
 62
     0
 10
886.23479225626511
 20
665.72158230683044
 30
0.0
  0
POINT
  5
CBE
  8
DEFPOINTS
 62
     0
 10
879.49368714957211
 20
670.02942421903094
 30
0.0
  0
ENDBLK
  5
543
  8
0
  0
BLOCK
  8
0
  2
*D29
 70
     1
 10
0.0
 20
0.0
 30
0.0
  3
*D29
  1

  0
LINE
  5
CBF
  8
0
 62
     0
 10
859.06597704240835
 20
737.87929553508388
 30
0.0
 11
892.65946552387936
 21
768.48340129928374
 31
0.0
  0
TEXT
  8
0
  40
2.5
  5
DC7
  62
0
  72
0
  71
0
 10
859.805
 20
737.839
 30
0.000000
  1
R8
  0
SOLID
  5
CC1
  8
0
 62
     0
 10
892.37886119961775
 20
768.79141481248871
 30
0.0
 11
892.94006984814075
 21
768.17538778607877
 31
0.0
 12
894.50754660310929
 22
770.16702724485253
 32
0.0
 13
894.50754660310929
 23
770.16702724485253
 33
0.0
  0
POINT
  5
CC2
  8
DEFPOINTS
 62
     0
 10
894.50754660310929
 20
770.16702724485253
 30
0.0
  0
POINT
  5
CC3
  8
DEFPOINTS
 62
     0
 10
888.59368714957191
 20
764.77942421903106
 30
0.0
  0
ENDBLK
  5
554
  8
0
  0
BLOCK
  8
0
  2
*D30
 70
     1
 10
0.0
 20
0.0
 30
0.0
  3
*D30
  1

  0
LINE
  5
CC4
  8
0
 62
     0
 10
729.81839212411876
 20
586.66400897965684
 30
0.0
 11
713.62637793399551
 21
601.61866445861415
 31
0.0
  0
TEXT
  8
0
  40
2.5
  5
DC8
  62
0
  72
0
  71
0
 10
729.101
 20
586.629
 30
0.000000
  1
R3
  0
SOLID
  5
CC6
  8
0
 62
     0
 10
713.90907813364822
 20
601.92475547159461
 30
0.0
 11
713.3436777343428
 21
601.3125734456338
 31
0.0
 12
711.78983185611276
 22
603.31486565653074
 32
0.0
 13
711.78983185611276
 23
603.31486565653074
 33
0.0
  0
POINT
  5
CC7
  8
DEFPOINTS
 62
     0
 10
711.78983185611276
 20
603.31486565653074
 30
0.0
  0
POINT
  5
CC8
  8
DEFPOINTS
 62
     0
 10
713.993687149572
 20
601.2794242190314
 30
0.0
  0
ENDBLK
  5
564
  8
0
  0
BLOCK
  8
0
  2
*D31
 70
     1
 10
0.0
 20
0.0
 30
0.0
  3
*D31
  1

  0
LINE
  5
9B1
  8
0
 62
     0
 10
690.39117854509209
 20
630.16004670817824
 30
0.0
 11
699.70863914311985
 21
617.69061744927956
 31
0.0
  0
INSERT
  5
9B2
  8
0
  2
*U136
 10
0.0
 20
0.0
 30
0.0
  0
LINE
  5
9B3
  8
0
 62
     0
 10
705.99368714957222
 20
609.27942421903106
 30
0.0
 11
701.20507914465611
 21
615.68795239445853
 31
0.0
  0
SOLID
  5
9B4
  8
0
 62
     0
 10
700.04241665225663
 20
617.94002411620238
 30
0.0
 11
699.37486163398285
 21
617.44121078235696
 31
0.0
 12
701.20507914465611
 22
615.68795239445853
 32
0.0
 13
701.20507914465611
 23
615.68795239445853
 33
0.0
  0
POINT
  5
9B5
  8
DEFPOINTS
 62
     0
 10
701.20507914465611
 20
615.68795239445853
 30
0.0
  0
POINT
  5
9B6
  8
DEFPOINTS
 62
     0
 10
705.99368714957222
 20
609.27942421903106
 30
0.0
  0
ENDBLK
  5
575
  8
0
  0
BLOCK
  8
0
  2
*D32
 70
     1
 10
0.0
 20
0.0
 30
0.0
  3
*D32
  1

  0
LINE
  5
58C
  8
0
 62
     0
 10
1018.118687149572
 20
913.27942421903117
 30
0.0
 11
1164.364390380671
 21
913.27942421903117
 31
0.0
  0
LINE
  5
58D
  8
0
 62
     0
 10
1018.118687149572
 20
-136.7205757809688
 30
0.0
 11
1164.364390380671
 21
-136.7205757809688
 31
0.0
  0
LINE
  5
58E
  8
0
 62
     0
 10
1163.114390380671
 20
910.77942421903117
 30
0.0
 11
1163.114390380671
 21
-134.2205757809688
 31
0.0
  0
SOLID
  5
58F
  8
0
 62
     0
 10
1162.697723714005
 20
910.77942421903117
 30
0.0
 11
1163.531057047338
 21
910.77942421903117
 31
0.0
 12
1163.114390380671
 22
913.27942421903117
 32
0.0
 13
1163.114390380671
 23
913.27942421903117
 33
0.0
  0
SOLID
  5
590
  8
0
 62
     0
 10
1162.697723714005
 20
-134.2205757809688
 30
0.0
 11
1163.531057047338
 21
-134.2205757809688
 31
0.0
 12
1163.114390380671
 22
-136.7205757809688
 32
0.0
 13
1163.114390380671
 23
-136.7205757809688
 33
0.0
  0
INSERT
  5
591
  8
0
  2
*U95
 10
0.0
 20
0.0
 30
0.0
  0
POINT
  5
592
  8
DEFPOINTS
 62
     0
 10
1017.493687149572
 20
913.27942421903117
 30
0.0
  0
POINT
  5
593
  8
DEFPOINTS
 62
     0
 10
1017.493687149572
 20
-136.7205757809688
 30
0.0
  0
POINT
  5
594
  8
DEFPOINTS
 62
     0
 10
1163.114390380671
 20
-136.7205757809688
 30
0.0
  0
ENDBLK
  5
58A
  8
0
  0
BLOCK
  8
0
  2
*D33
 70
     1
 10
0.0
 20
0.0
 30
0.0
  3
*D33
  1

  0
LINE
  5
5A4
  8
0
 62
     0
 10
677.493687149572
 20
-269.95121284005972
 30
0.0
 11
677.493687149572
 21
-222.16476640205829
 31
0.0
  0
LINE
  5
5A5
  8
0
 62
     0
 10
1017.493687149572
 20
-269.95121284005972
 30
0.0
 11
1017.493687149572
 21
-222.16476640205829
 31
0.0
  0
LINE
  5
5A6
  8
0
 62
     0
 10
679.99368714957177
 20
-223.41476640205829
 30
0.0
 11
1014.993687149572
 21
-223.41476640205829
 31
0.0
  0
SOLID
  5
5A7
  8
0
 62
     0
 10
679.99368714957177
 20
-222.99809973539169
 30
0.0
 11
679.99368714957177
 21
-223.831433068725
 31
0.0
 12
677.493687149572
 22
-223.41476640205829
 32
0.0
 13
677.493687149572
 23
-223.41476640205829
 33
0.0
  0
SOLID
  5
5A8
  8
0
 62
     0
 10
1014.993687149572
 20
-222.99809973539169
 30
0.0
 11
1014.993687149572
 21
-223.831433068725
 31
0.0
 12
1017.493687149572
 22
-223.41476640205829
 32
0.0
 13
1017.493687149572
 23
-223.41476640205829
 33
0.0
  0
INSERT
  5
5A9
  8
0
  2
*U96
 10
0.0
 20
0.0
 30
0.0
  0
POINT
  5
5AA
  8
DEFPOINTS
 62
     0
 10
677.493687149572
 20
-270.57621284005972
 30
0.0
  0
POINT
  5
5AB
  8
DEFPOINTS
 62
     0
 10
1017.493687149572
 20
-270.57621284005972
 30
0.0
  0
POINT
  5
5AC
  8
DEFPOINTS
 62
     0
 10
1017.493687149572
 20
-223.41476640205829
 30
0.0
  0
ENDBLK
  5
5A2
  8
0
  0
BLOCK
  8
0
  2
*D34
 70
     1
 10
0.0
 20
0.0
 30
0.0
  3
*D34
  1

  0
LINE
  5
5BC
  8
0
 62
     0
 10
784.86868714957211
 20
-720.57621284005984
 30
0.0
 11
598.53501007399984
 21
-720.57621284005984
 31
0.0
  0
LINE
  5
5BD
  8
0
 62
     0
 10
676.86868714957177
 20
-270.57621284005972
 30
0.0
 11
598.53501007399984
 21
-270.57621284005972
 31
0.0
  0
LINE
  5
5BE
  8
0
 62
     0
 10
599.78501007399984
 20
-718.07621284005984
 30
0.0
 11
599.78501007399984
 21
-273.07621284005972
 31
0.0
  0
SOLID
  5
5BF
  8
0
 62
     0
 10
599.36834340733299
 20
-718.07621284005984
 30
0.0
 11
600.20167674066624
 21
-718.07621284005984
 31
0.0
 12
599.78501007399984
 22
-720.57621284005984
 32
0.0
 13
599.78501007399984
 23
-720.57621284005984
 33
0.0
  0
SOLID
  5
5C0
  8
0
 62
     0
 10
599.36834340733299
 20
-273.07621284005972
 30
0.0
 11
600.20167674066624
 21
-273.07621284005972
 31
0.0
 12
599.78501007399984
 22
-270.57621284005972
 32
0.0
 13
599.78501007399984
 23
-270.57621284005972
 33
0.0
  0
INSERT
  5
5C1
  8
0
  2
*U97
 10
0.0
 20
0.0
 30
0.0
  0
POINT
  5
5C2
  8
DEFPOINTS
 62
     0
 10
785.49368714957211
 20
-720.57621284005984
 30
0.0
  0
POINT
  5
5C3
  8
DEFPOINTS
 62
     0
 10
677.493687149572
 20
-270.57621284005972
 30
0.0
  0
POINT
  5
5C4
  8
DEFPOINTS
 62
     0
 10
599.78501007399984
 20
-270.57621284005972
 30
0.0
  0
ENDBLK
  5
5BA
  8
0
  0
BLOCK
  8
0
  2
*D35
 70
     1
 10
0.0
 20
0.0
 30
0.0
  3
*D35
  1

  0
LINE
  5
5D4
  8
0
 62
     0
 10
910.118687149572
 20
-720.57621284005984
 30
0.0
 11
1121.758201320954
 21
-720.57621284005984
 31
0.0
  0
LINE
  5
5D5
  8
0
 62
     0
 10
1017.3588417554849
 20
-702.95254718801607
 30
0.0
 11
1121.758201320954
 21
-702.95254718801607
 31
0.0
  0
LINE
  5
5D6
  8
0
 62
     0
 10
1120.508201320954
 20
-718.07621284005984
 30
0.0
 11
1120.508201320954
 21
-705.45254718801596
 31
0.0
  0
SOLID
  5
5D7
  8
0
 62
     0
 10
1120.091534654287
 20
-718.07621284005984
 30
0.0
 11
1120.92486798762
 21
-718.07621284005984
 31
0.0
 12
1120.508201320954
 22
-720.57621284005984
 32
0.0
 13
1120.508201320954
 23
-720.57621284005984
 33
0.0
  0
SOLID
  5
5D8
  8
0
 62
     0
 10
1120.091534654287
 20
-705.45254718801596
 30
0.0
 11
1120.92486798762
 21
-705.45254718801596
 31
0.0
 12
1120.508201320954
 22
-702.95254718801607
 32
0.0
 13
1120.508201320954
 23
-702.95254718801607
 33
0.0
  0
INSERT
  5
5D9
  8
0
  2
*U98
 10
0.0
 20
0.0
 30
0.0
  0
POINT
  5
5DA
  8
DEFPOINTS
 62
     0
 10
909.493687149572
 20
-720.57621284005984
 30
0.0
  0
POINT
  5
5DB
  8
DEFPOINTS
 62
     0
 10
1016.7338417554849
 20
-702.95254718801607
 30
0.0
  0
POINT
  5
5DC
  8
DEFPOINTS
 62
     0
 10
1120.508201320954
 20
-702.95254718801607
 30
0.0
  0
ENDBLK
  5
5D2
  8
0
  0
BLOCK
  8
0
  2
*D36
 70
     1
 10
0.0
 20
0.0
 30
0.0
  3
*D36
  1

  0
LINE
  5
5EC
  8
0
 62
     0
 10
1016.7338417554849
 20
-702.32754718801596
 30
0.0
 11
1016.7338417554849
 21
-613.36172204077229
 31
0.0
  0
LINE
  5
5ED
  8
0
 62
     0
 10
909.493687149572
 20
-719.95121284005984
 30
0.0
 11
909.493687149572
 21
-613.36172204077229
 31
0.0
  0
LINE
  5
5EE
  8
0
 62
     0
 10
1014.2338417554849
 20
-614.61172204077229
 30
0.0
 11
911.993687149572
 21
-614.61172204077229
 31
0.0
  0
SOLID
  5
5EF
  8
0
 62
     0
 10
1014.2338417554849
 20
-614.19505537410566
 30
0.0
 11
1014.2338417554849
 21
-615.02838870743869
 31
0.0
 12
1016.7338417554849
 22
-614.61172204077229
 32
0.0
 13
1016.7338417554849
 23
-614.61172204077229
 33
0.0
  0
SOLID
  5
5F0
  8
0
 62
     0
 10
911.993687149572
 20
-614.19505537410566
 30
0.0
 11
911.993687149572
 21
-615.02838870743869
 31
0.0
 12
909.493687149572
 22
-614.61172204077229
 32
0.0
 13
909.493687149572
 23
-614.61172204077229
 33
0.0
  0
INSERT
  5
5F1
  8
0
  2
*U99
 10
0.0
 20
0.0
 30
0.0
  0
POINT
  5
5F2
  8
DEFPOINTS
 62
     0
 10
1016.7338417554849
 20
-702.95254718801607
 30
0.0
  0
POINT
  5
5F3
  8
DEFPOINTS
 62
     0
 10
909.493687149572
 20
-720.57621284005984
 30
0.0
  0
POINT
  5
5F4
  8
DEFPOINTS
 62
     0
 10
909.493687149572
 20
-614.61172204077229
 30
0.0
  0
ENDBLK
  5
5EA
  8
0
  0
BLOCK
  8
0
  2
*D37
 70
     1
 10
0.0
 20
0.0
 30
0.0
  3
*D37
  1

  0
LINE
  5
604
  8
0
 62
     0
 10
785.493687149572
 20
913.90442421903117
 30
0.0
 11
785.493687149572
 21
971.23810434134862
 31
0.0
  0
LINE
  5
605
  8
0
 62
     0
 10
909.493687149572
 20
913.90442421903117
 30
0.0
 11
909.493687149572
 21
971.23810434134862
 31
0.0
  0
LINE
  5
606
  8
0
 62
     0
 10
787.99368714957177
 20
969.98810434134873
 30
0.0
 11
906.993687149572
 21
969.98810434134873
 31
0.0
  0
SOLID
  5
607
  8
0
 62
     0
 10
787.99368714957177
 20
970.40477100801547
 30
0.0
 11
787.99368714957177
 21
969.57143767468222
 31
0.0
 12
785.493687149572
 22
969.98810434134873
 32
0.0
 13
785.493687149572
 23
969.98810434134873
 33
0.0
  0
SOLID
  5
608
  8
0
 62
     0
 10
906.993687149572
 20
970.40477100801547
 30
0.0
 11
906.993687149572
 21
969.57143767468222
 31
0.0
 12
909.493687149572
 22
969.98810434134873
 32
0.0
 13
909.493687149572
 23
969.98810434134873
 33
0.0
  0
INSERT
  5
609
  8
0
  2
*U100
 10
0.0
 20
0.0
 30
0.0
  0
POINT
  5
60A
  8
DEFPOINTS
 62
     0
 10
785.493687149572
 20
913.27942421903117
 30
0.0
  0
POINT
  5
60B
  8
DEFPOINTS
 62
     0
 10
909.493687149572
 20
913.27942421903117
 30
0.0
  0
POINT
  5
60C
  8
DEFPOINTS
 62
     0
 10
909.493687149572
 20
969.98810434134873
 30
0.0
  0
ENDBLK
  5
602
  8
0
  0
BLOCK
  8
0
  2
*D38
 70
     1
 10
0.0
 20
0.0
 30
0.0
  3
*D38
  1

  0
LINE
  5
61C
  8
0
 62
     0
 10
785.49368714957211
 20
-719.95121284005984
 30
0.0
 11
785.49368714957211
 21
-673.44368859019687
 31
0.0
  0
LINE
  5
61D
  8
0
 62
     0
 10
909.493687149572
 20
-719.95121284005984
 30
0.0
 11
909.493687149572
 21
-673.44368859019687
 31
0.0
  0
LINE
  5
61E
  8
0
 62
     0
 10
787.99368714957211
 20
-674.69368859019664
 30
0.0
 11
906.993687149572
 21
-674.69368859019664
 31
0.0
  0
SOLID
  5
61F
  8
0
 62
     0
 10
787.99368714957211
 20
-674.27702192353024
 30
0.0
 11
787.99368714957211
 21
-675.11035525686339
 31
0.0
 12
785.49368714957211
 22
-674.69368859019664
 32
0.0
 13
785.49368714957211
 23
-674.69368859019664
 33
0.0
  0
SOLID
  5
620
  8
0
 62
     0
 10
906.993687149572
 20
-674.27702192353024
 30
0.0
 11
906.993687149572
 21
-675.11035525686339
 31
0.0
 12
909.493687149572
 22
-674.69368859019664
 32
0.0
 13
909.493687149572
 23
-674.69368859019664
 33
0.0
  0
INSERT
  5
621
  8
0
  2
*U101
 10
0.0
 20
0.0
 30
0.0
  0
POINT
  5
622
  8
DEFPOINTS
 62
     0
 10
785.49368714957211
 20
-720.57621284005984
 30
0.0
  0
POINT
  5
623
  8
DEFPOINTS
 62
     0
 10
909.493687149572
 20
-720.57621284005984
 30
0.0
  0
POINT
  5
624
  8
DEFPOINTS
 62
     0
 10
909.493687149572
 20
-674.69368859019664
 30
0.0
  0
ENDBLK
  5
61A
  8
0
  0
BLOCK
  8
0
  2
*D39
 70
     1
 10
0.0
 20
0.0
 30
0.0
  3
*D39
  1

  0
LINE
  5
634
  8
0
 62
     0
 10
1394.6156921632769
 20
913.90442421903117
 30
0.0
 11
1394.6156921632769
 21
940.19541499330342
 31
0.0
  0
LINE
  5
635
  8
0
 62
     0
 10
1411.6836389383691
 20
913.90442421903117
 30
0.0
 11
1411.6836389383691
 21
940.19541499330342
 31
0.0
  0
LINE
  5
636
  8
0
 62
     0
 10
1397.1156921632769
 20
938.94541499330364
 30
0.0
 11
1409.1836389383691
 21
938.94541499330364
 31
0.0
  0
SOLID
  5
637
  8
0
 62
     0
 10
1397.1156921632769
 20
939.36208165997004
 30
0.0
 11
1397.1156921632769
 21
938.52874832663667
 31
0.0
 12
1394.6156921632769
 22
938.94541499330364
 32
0.0
 13
1394.6156921632769
 23
938.94541499330364
 33
0.0
  0
SOLID
  5
638
  8
0
 62
     0
 10
1409.1836389383691
 20
939.36208165997004
 30
0.0
 11
1409.1836389383691
 21
938.52874832663667
 31
0.0
 12
1411.6836389383691
 22
938.94541499330364
 32
0.0
 13
1411.6836389383691
 23
938.94541499330364
 33
0.0
  0
INSERT
  5
639
  8
0
  2
*U102
 10
0.0
 20
0.0
 30
0.0
  0
POINT
  5
63A
  8
DEFPOINTS
 62
     0
 10
1394.6156921632769
 20
913.27942421903117
 30
0.0
  0
POINT
  5
63B
  8
DEFPOINTS
 62
     0
 10
1411.6836389383691
 20
913.27942421903117
 30
0.0
  0
POINT
  5
63C
  8
DEFPOINTS
 62
     0
 10
1411.6836389383691
 20
938.94541499330364
 30
0.0
  0
ENDBLK
  5
632
  8
0
  0
BLOCK
  8
0
  2
*D40
 70
     1
 10
0.0
 20
0.0
 30
0.0
  3
*D40
  1

  0
LINE
  5
64C
  8
0
 62
     0
 10
1394.6156921632769
 20
913.90442421903117
 30
0.0
 11
1394.6156921632769
 21
940.45118624690986
 31
0.0
  0
LINE
  5
64D
  8
0
 62
     0
 10
1412.6156921632769
 20
913.90442421903117
 30
0.0
 11
1412.6156921632769
 21
940.45118624690986
 31
0.0
  0
LINE
  5
64E
  8
0
 62
     0
 10
1397.1156921632769
 20
939.20118624690974
 30
0.0
 11
1410.1156921632769
 21
939.20118624690974
 31
0.0
  0
SOLID
  5
64F
  8
0
 62
     0
 10
1397.1156921632769
 20
939.61785291357626
 30
0.0
 11
1397.1156921632769
 21
938.78451958024323
 31
0.0
 12
1394.6156921632769
 22
939.20118624690974
 32
0.0
 13
1394.6156921632769
 23
939.20118624690974
 33
0.0
  0
SOLID
  5
650
  8
0
 62
     0
 10
1410.1156921632769
 20
939.61785291357626
 30
0.0
 11
1410.1156921632769
 21
938.78451958024323
 31
0.0
 12
1412.6156921632769
 22
939.20118624690974
 32
0.0
 13
1412.6156921632769
 23
939.20118624690974
 33
0.0
  0
INSERT
  5
651
  8
0
  2
*U103
 10
0.0
 20
0.0
 30
0.0
  0
POINT
  5
652
  8
DEFPOINTS
 62
     0
 10
1394.6156921632769
 20
913.27942421903117
 30
0.0
  0
POINT
  5
653
  8
DEFPOINTS
 62
     0
 10
1412.6156921632769
 20
913.27942421903117
 30
0.0
  0
POINT
  5
654
  8
DEFPOINTS
 62
     0
 10
1412.6156921632769
 20
939.20118624690974
 30
0.0
  0
ENDBLK
  5
64A
  8
0
  0
BLOCK
  8
0
  2
*D41
 70
     1
 10
0.0
 20
0.0
 30
0.0
  3
*D41
  1

  0
LINE
  5
666
  8
0
 62
     0
 10
1398.9906921632769
 20
882.52942421903094
 30
0.0
 11
1337.1681636234439
 21
882.52942421903094
 31
0.0
  0
LINE
  5
667
  8
0
 62
     0
 10
1393.9906921632769
 20
888.27942421903117
 30
0.0
 11
1337.1681636234439
 21
888.27942421903117
 31
0.0
  0
LINE
  5
668
  8
0
 62
     0
 10
1338.4181636234439
 20
880.02942421903106
 30
0.0
 11
1338.4181636234439
 21
877.52942421903106
 31
0.0
  0
LINE
  5
669
  8
0
 62
     0
 10
1338.4181636234439
 20
890.77942421903106
 30
0.0
 11
1338.4181636234439
 21
902.4460908856978
 31
0.0
  0
LINE
  5
66A
  8
0
 62
     0
 10
1338.4181636234439
 20
882.52942421903094
 30
0.0
 11
1338.4181636234439
 21
888.27942421903117
 31
0.0
  0
SOLID
  5
66B
  8
0
 62
     0
 10
1338.0014969567769
 20
880.02942421903106
 30
0.0
 11
1338.8348302901111
 21
880.02942421903106
 31
0.0
 12
1338.4181636234439
 22
882.52942421903094
 32
0.0
 13
1338.4181636234439
 23
882.52942421903094
 33
0.0
  0
SOLID
  5
66C
  8
0
 62
     0
 10
1338.0014969567769
 20
890.77942421903106
 30
0.0
 11
1338.8348302901111
 21
890.77942421903106
 31
0.0
 12
1338.4181636234439
 22
888.27942421903117
 32
0.0
 13
1338.4181636234439
 23
888.27942421903117
 33
0.0
  0
INSERT
  5
66D
  8
0
  2
*U104
 10
0.0
 20
0.0
 30
0.0
  0
POINT
  5
66E
  8
DEFPOINTS
 62
     0
 10
1399.6156921632769
 20
882.52942421903094
 30
0.0
  0
POINT
  5
66F
  8
DEFPOINTS
 62
     0
 10
1394.6156921632769
 20
888.27942421903117
 30
0.0
  0
POINT
  5
670
  8
DEFPOINTS
 62
     0
 10
1338.4181636234439
 20
888.27942421903117
 30
0.0
  0
ENDBLK
  5
664
  8
0
  0
BLOCK
  8
0
  2
*D42
 70
     1
 10
0.0
 20
0.0
 30
0.0
  3
*D42
  1

  0
LINE
  5
682
  8
0
 62
     0
 10
1399.6156921632769
 20
794.15442421903094
 30
0.0
 11
1399.6156921632769
 21
814.24652403511459
 31
0.0
  0
LINE
  5
683
  8
0
 62
     0
 10
1394.6156921632769
 20
788.40442421903094
 30
0.0
 11
1394.6156921632769
 21
814.24652403511459
 31
0.0
  0
LINE
  5
684
  8
0
 62
     0
 10
1402.1156921632769
 20
812.99652403511493
 30
0.0
 11
1404.6156921632769
 21
812.99652403511493
 31
0.0
  0
LINE
  5
685
  8
0
 62
     0
 10
1392.1156921632769
 20
812.99652403511493
 30
0.0
 11
1389.6156921632769
 21
812.99652403511493
 31
0.0
  0
LINE
  5
686
  8
0
 62
     0
 10
1399.6156921632769
 20
812.99652403511493
 30
0.0
 11
1394.6156921632769
 21
812.99652403511493
 31
0.0
  0
SOLID
  5
687
  8
0
 62
     0
 10
1402.1156921632769
 20
813.41319070178133
 30
0.0
 11
1402.1156921632769
 21
812.57985736844819
 31
0.0
 12
1399.6156921632769
 22
812.99652403511493
 32
0.0
 13
1399.6156921632769
 23
812.99652403511493
 33
0.0
  0
SOLID
  5
688
  8
0
 62
     0
 10
1392.1156921632769
 20
813.41319070178133
 30
0.0
 11
1392.1156921632769
 21
812.57985736844819
 31
0.0
 12
1394.6156921632769
 22
812.99652403511493
 32
0.0
 13
1394.6156921632769
 23
812.99652403511493
 33
0.0
  0
INSERT
  5
689
  8
0
  2
*U105
 10
0.0
 20
0.0
 30
0.0
  0
POINT
  5
68A
  8
DEFPOINTS
 62
     0
 10
1399.6156921632769
 20
793.52942421903117
 30
0.0
  0
POINT
  5
68B
  8
DEFPOINTS
 62
     0
 10
1394.6156921632769
 20
787.77942421903106
 30
0.0
  0
POINT
  5
68C
  8
DEFPOINTS
 62
     0
 10
1394.6156921632769
 20
812.99652403511493
 30
0.0
  0
ENDBLK
  5
680
  8
0
  0
BLOCK
  8
0
  2
*D43
 70
     1
 10
0.0
 20
0.0
 30
0.0
  3
*D43
  1

  0
LINE
  5
69C
  8
0
 62
     0
 10
1413.2406921632769
 20
882.52942421903094
 30
0.0
 11
1443.21472354762
 21
882.52942421903094
 31
0.0
  0
LINE
  5
69D
  8
0
 62
     0
 10
1413.2406921632769
 20
793.52942421903117
 30
0.0
 11
1443.21472354762
 21
793.52942421903117
 31
0.0
  0
LINE
  5
69E
  8
0
 62
     0
 10
1441.96472354762
 20
880.02942421903106
 30
0.0
 11
1441.96472354762
 21
796.02942421903094
 31
0.0
  0
SOLID
  5
69F
  8
0
 62
     0
 10
1441.5480568809539
 20
880.02942421903106
 30
0.0
 11
1442.381390214287
 21
880.02942421903106
 31
0.0
 12
1441.96472354762
 22
882.52942421903094
 32
0.0
 13
1441.96472354762
 23
882.52942421903094
 33
0.0
  0
SOLID
  5
6A0
  8
0
 62
     0
 10
1441.5480568809539
 20
796.02942421903094
 30
0.0
 11
1442.381390214287
 21
796.02942421903094
 31
0.0
 12
1441.96472354762
 22
793.52942421903117
 32
0.0
 13
1441.96472354762
 23
793.52942421903117
 33
0.0
  0
INSERT
  5
6A1
  8
0
  2
*U106
 10
0.0
 20
0.0
 30
0.0
  0
POINT
  5
6A2
  8
DEFPOINTS
 62
     0
 10
1412.6156921632769
 20
882.52942421903094
 30
0.0
  0
POINT
  5
6A3
  8
DEFPOINTS
 62
     0
 10
1412.6156921632769
 20
793.52942421903117
 30
0.0
  0
POINT
  5
6A4
  8
DEFPOINTS
 62
     0
 10
1441.96472354762
 20
793.52942421903117
 30
0.0
  0
ENDBLK
  5
69A
  8
0
  0
BLOCK
  8
0
  2
*D44
 70
     1
 10
0.0
 20
0.0
 30
0.0
  3
*D44
  1

  0
LINE
  5
6B4
  8
0
 62
     0
 10
1393.9906921632769
 20
772.7794242190314
 30
0.0
 11
1347.5169921305039
 21
772.7794242190314
 31
0.0
  0
LINE
  5
6B5
  8
0
 62
     0
 10
1398.9906921632769
 20
763.0294242190314
 30
0.0
 11
1347.5169921305039
 21
763.0294242190314
 31
0.0
  0
LINE
  5
6B6
  8
0
 62
     0
 10
1348.7669921305039
 20
770.27942421903117
 30
0.0
 11
1348.7669921305039
 21
765.5294242190314
 31
0.0
  0
SOLID
  5
6B7
  8
0
 62
     0
 10
1348.350325463837
 20
770.27942421903117
 30
0.0
 11
1349.1836587971709
 21
770.27942421903117
 31
0.0
 12
1348.7669921305039
 22
772.7794242190314
 32
0.0
 13
1348.7669921305039
 23
772.7794242190314
 33
0.0
  0
SOLID
  5
6B8
  8
0
 62
     0
 10
1348.350325463837
 20
765.5294242190314
 30
0.0
 11
1349.1836587971709
 21
765.5294242190314
 31
0.0
 12
1348.7669921305039
 22
763.0294242190314
 32
0.0
 13
1348.7669921305039
 23
763.0294242190314
 33
0.0
  0
INSERT
  5
6B9
  8
0
  2
*U107
 10
0.0
 20
0.0
 30
0.0
  0
POINT
  5
6BA
  8
DEFPOINTS
 62
     0
 10
1394.6156921632769
 20
772.7794242190314
 30
0.0
  0
POINT
  5
6BB
  8
DEFPOINTS
 62
     0
 10
1399.6156921632769
 20
763.0294242190314
 30
0.0
  0
POINT
  5
6BC
  8
DEFPOINTS
 62
     0
 10
1348.7669921305039
 20
763.0294242190314
 30
0.0
  0
ENDBLK
  5
6B2
  8
0
  0
BLOCK
  8
0
  2
*D45
 70
     1
 10
0.0
 20
0.0
 30
0.0
  3
*D45
  1

  0
LINE
  5
6CE
  8
0
 62
     0
 10
1394.6156921632769
 20
652.90442421903117
 30
0.0
 11
1394.6156921632769
 21
687.96556389367572
 31
0.0
  0
LINE
  5
6CF
  8
0
 62
     0
 10
1399.6156921632769
 20
662.65442421903083
 30
0.0
 11
1399.6156921632769
 21
687.96556389367572
 31
0.0
  0
LINE
  5
6D0
  8
0
 62
     0
 10
1392.1156921632769
 20
686.71556389367561
 30
0.0
 11
1389.6156921632769
 21
686.71556389367561
 31
0.0
  0
LINE
  5
6D1
  8
0
 62
     0
 10
1402.1156921632769
 20
686.71556389367561
 30
0.0
 11
1404.6156921632769
 21
686.71556389367561
 31
0.0
  0
LINE
  5
6D2
  8
0
 62
     0
 10
1394.6156921632769
 20
686.71556389367561
 30
0.0
 11
1399.6156921632769
 21
686.71556389367561
 31
0.0
  0
SOLID
  5
6D3
  8
0
 62
     0
 10
1392.1156921632769
 20
687.13223056034224
 30
0.0
 11
1392.1156921632769
 21
686.29889722700875
 31
0.0
 12
1394.6156921632769
 22
686.71556389367561
 32
0.0
 13
1394.6156921632769
 23
686.71556389367561
 33
0.0
  0
SOLID
  5
6D4
  8
0
 62
     0
 10
1402.1156921632769
 20
687.13223056034224
 30
0.0
 11
1402.1156921632769
 21
686.29889722700875
 31
0.0
 12
1399.6156921632769
 22
686.71556389367561
 32
0.0
 13
1399.6156921632769
 23
686.71556389367561
 33
0.0
  0
INSERT
  5
6D5
  8
0
  2
*U108
 10
0.0
 20
0.0
 30
0.0
  0
POINT
  5
6D6
  8
DEFPOINTS
 62
     0
 10
1394.6156921632769
 20
652.27942421903106
 30
0.0
  0
POINT
  5
6D7
  8
DEFPOINTS
 62
     0
 10
1399.6156921632769
 20
662.02942421903083
 30
0.0
  0
POINT
  5
6D8
  8
DEFPOINTS
 62
     0
 10
1399.6156921632769
 20
686.71556389367561
 30
0.0
  0
ENDBLK
  5
6CC
  8
0
  0
BLOCK
  8
0
  2
*D46
 70
     1
 10
0.0
 20
0.0
 30
0.0
  3
*D46
  1

  0
LINE
  5
6E8
  8
0
 62
     0
 10
1413.2406921632769
 20
763.0294242190314
 30
0.0
 11
1431.150586932192
 21
763.0294242190314
 31
0.0
  0
LINE
  5
6E9
  8
0
 62
     0
 10
1413.2406921632769
 20
662.02942421903072
 30
0.0
 11
1431.150586932192
 21
662.02942421903072
 31
0.0
  0
LINE
  5
6EA
  8
0
 62
     0
 10
1429.900586932192
 20
760.52942421903117
 30
0.0
 11
1429.900586932192
 21
664.52942421903072
 31
0.0
  0
SOLID
  5
6EB
  8
0
 62
     0
 10
1429.4839202655251
 20
760.52942421903117
 30
0.0
 11
1430.3172535988581
 21
760.52942421903117
 31
0.0
 12
1429.900586932192
 22
763.0294242190314
 32
0.0
 13
1429.900586932192
 23
763.0294242190314
 33
0.0
  0
SOLID
  5
6EC
  8
0
 62
     0
 10
1429.4839202655251
 20
664.52942421903072
 30
0.0
 11
1430.3172535988581
 21
664.52942421903072
 31
0.0
 12
1429.900586932192
 22
662.02942421903072
 32
0.0
 13
1429.900586932192
 23
662.02942421903072
 33
0.0
  0
INSERT
  5
6ED
  8
0
  2
*U109
 10
0.0
 20
0.0
 30
0.0
  0
POINT
  5
6EE
  8
DEFPOINTS
 62
     0
 10
1412.6156921632769
 20
763.0294242190314
 30
0.0
  0
POINT
  5
6EF
  8
DEFPOINTS
 62
     0
 10
1412.6156921632769
 20
662.02942421903072
 30
0.0
  0
POINT
  5
6F0
  8
DEFPOINTS
 62
     0
 10
1429.900586932192
 20
662.02942421903072
 30
0.0
  0
ENDBLK
  5
6E6
  8
0
  0
BLOCK
  8
0
  2
*D47
 70
     1
 10
0.0
 20
0.0
 30
0.0
  3
*D47
  1

  0
LINE
  5
700
  8
0
 62
     0
 10
1393.9906921632769
 20
617.27942421903106
 30
0.0
 11
1378.4945668412111
 21
617.27942421903106
 31
0.0
  0
LINE
  5
701
  8
0
 62
     0
 10
1401.990692163278
 20
604.27942421903117
 30
0.0
 11
1378.4945668412111
 21
604.27942421903117
 31
0.0
  0
LINE
  5
702
  8
0
 62
     0
 10
1379.7445668412111
 20
614.77942421903106
 30
0.0
 11
1379.7445668412111
 21
606.77942421903094
 31
0.0
  0
SOLID
  5
703
  8
0
 62
     0
 10
1379.3279001745441
 20
614.77942421903106
 30
0.0
 11
1380.161233507878
 21
614.77942421903106
 31
0.0
 12
1379.7445668412111
 22
617.27942421903106
 32
0.0
 13
1379.7445668412111
 23
617.27942421903106
 33
0.0
  0
SOLID
  5
704
  8
0
 62
     0
 10
1379.3279001745441
 20
606.77942421903094
 30
0.0
 11
1380.161233507878
 21
606.77942421903094
 31
0.0
 12
1379.7445668412111
 22
604.27942421903117
 32
0.0
 13
1379.7445668412111
 23
604.27942421903117
 33
0.0
  0
INSERT
  5
705
  8
0
  2
*U110
 10
0.0
 20
0.0
 30
0.0
  0
POINT
  5
706
  8
DEFPOINTS
 62
     0
 10
1394.6156921632769
 20
617.27942421903106
 30
0.0
  0
POINT
  5
707
  8
DEFPOINTS
 62
     0
 10
1402.6156921632769
 20
604.27942421903117
 30
0.0
  0
POINT
  5
708
  8
DEFPOINTS
 62
     0
 10
1379.7445668412111
 20
604.27942421903117
 30
0.0
  0
ENDBLK
  5
6FE
  8
0
  0
BLOCK
  8
0
  2
*D48
 70
     1
 10
0.0
 20
0.0
 30
0.0
  3
*D48
  1

  0
LINE
  5
718
  8
0
 62
     0
 10
1394.6156921632769
 20
320.90442421903123
 30
0.0
 11
1394.6156921632769
 21
395.1094848611674
 31
0.0
  0
LINE
  5
719
  8
0
 62
     0
 10
1402.6156921632769
 20
333.90442421903123
 30
0.0
 11
1402.6156921632769
 21
395.1094848611674
 31
0.0
  0
LINE
  5
71A
  8
0
 62
     0
 10
1397.1156921632769
 20
393.85948486116729
 30
0.0
 11
1400.115692163278
 21
393.85948486116729
 31
0.0
  0
SOLID
  5
71B
  8
0
 62
     0
 10
1397.1156921632769
 20
394.27615152783409
 30
0.0
 11
1397.1156921632769
 21
393.44281819450072
 31
0.0
 12
1394.6156921632769
 22
393.85948486116729
 32
0.0
 13
1394.6156921632769
 23
393.85948486116729
 33
0.0
  0
SOLID
  5
71C
  8
0
 62
     0
 10
1400.115692163278
 20
394.27615152783409
 30
0.0
 11
1400.115692163278
 21
393.44281819450072
 31
0.0
 12
1402.6156921632769
 22
393.85948486116729
 32
0.0
 13
1402.6156921632769
 23
393.85948486116729
 33
0.0
  0
INSERT
  5
71D
  8
0
  2
*U111
 10
0.0
 20
0.0
 30
0.0
  0
POINT
  5
71E
  8
DEFPOINTS
 62
     0
 10
1394.6156921632769
 20
320.27942421903123
 30
0.0
  0
POINT
  5
71F
  8
DEFPOINTS
 62
     0
 10
1402.6156921632769
 20
333.27942421903123
 30
0.0
  0
POINT
  5
720
  8
DEFPOINTS
 62
     0
 10
1402.6156921632769
 20
393.85948486116729
 30
0.0
  0
ENDBLK
  5
716
  8
0
  0
BLOCK
  8
0
  2
*D49
 70
     1
 10
0.0
 20
0.0
 30
0.0
  3
*D49
  1

  0
LINE
  5
730
  8
0
 62
     0
 10
1413.2406921632769
 20
604.27942421903117
 30
0.0
 11
1492.2638717064731
 21
604.27942421903117
 31
0.0
  0
LINE
  5
731
  8
0
 62
     0
 10
1413.240692163278
 20
330.49482957444462
 30
0.0
 11
1492.2638717064731
 21
330.49482957444462
 31
0.0
  0
LINE
  5
732
  8
0
 62
     0
 10
1491.0138717064731
 20
601.77942421903094
 30
0.0
 11
1491.0138717064731
 21
332.99482957444462
 31
0.0
  0
SOLID
  5
733
  8
0
 62
     0
 10
1490.5972050398061
 20
601.77942421903094
 30
0.0
 11
1491.4305383731401
 21
601.77942421903094
 31
0.0
 12
1491.0138717064731
 22
604.27942421903117
 32
0.0
 13
1491.0138717064731
 23
604.27942421903117
 33
0.0
  0
SOLID
  5
734
  8
0
 62
     0
 10
1490.5972050398061
 20
332.99482957444462
 30
0.0
 11
1491.4305383731389
 21
332.99482957444462
 31
0.0
 12
1491.0138717064731
 22
330.49482957444462
 32
0.0
 13
1491.0138717064731
 23
330.49482957444462
 33
0.0
  0
INSERT
  5
735
  8
0
  2
*U112
 10
0.0
 20
0.0
 30
0.0
  0
POINT
  5
736
  8
DEFPOINTS
 62
     0
 10
1412.6156921632769
 20
604.27942421903117
 30
0.0
  0
POINT
  5
737
  8
DEFPOINTS
 62
     0
 10
1412.6156921632769
 20
330.49482957444462
 30
0.0
  0
POINT
  5
738
  8
DEFPOINTS
 62
     0
 10
1491.0138717064731
 20
330.49482957444462
 30
0.0
  0
ENDBLK
  5
72E
  8
0
  0
BLOCK
  8
0
  2
*D50
 70
     1
 10
0.0
 20
0.0
 30
0.0
  3
*D50
  1

  0
LINE
  5
748
  8
0
 62
     0
 10
1413.2406921632769
 20
333.27942421903123
 30
0.0
 11
1449.8297898372909
 21
333.27942421903123
 31
0.0
  0
LINE
  5
749
  8
0
 62
     0
 10
1413.2406921632769
 20
604.27942421903117
 30
0.0
 11
1449.8297898372909
 21
604.27942421903117
 31
0.0
  0
LINE
  5
74A
  8
0
 62
     0
 10
1448.5797898372909
 20
335.77942421903123
 30
0.0
 11
1448.5797898372909
 21
601.77942421903094
 31
0.0
  0
SOLID
  5
74B
  8
0
 62
     0
 10
1448.163123170624
 20
335.77942421903123
 30
0.0
 11
1448.996456503957
 21
335.77942421903123
 31
0.0
 12
1448.5797898372909
 22
333.27942421903123
 32
0.0
 13
1448.5797898372909
 23
333.27942421903123
 33
0.0
  0
SOLID
  5
74C
  8
0
 62
     0
 10
1448.163123170624
 20
601.77942421903094
 30
0.0
 11
1448.9964565039579
 21
601.77942421903094
 31
0.0
 12
1448.5797898372909
 22
604.27942421903117
 32
0.0
 13
1448.5797898372909
 23
604.27942421903117
 33
0.0
  0
INSERT
  5
74D
  8
0
  2
*U113
 10
0.0
 20
0.0
 30
0.0
  0
POINT
  5
74E
  8
DEFPOINTS
 62
     0
 10
1412.6156921632769
 20
333.27942421903123
 30
0.0
  0
POINT
  5
74F
  8
DEFPOINTS
 62
     0
 10
1412.6156921632769
 20
604.27942421903117
 30
0.0
  0
POINT
  5
750
  8
DEFPOINTS
 62
     0
 10
1448.5797898372909
 20
604.27942421903117
 30
0.0
  0
ENDBLK
  5
746
  8
0
  0
BLOCK
  8
0
  2
*D51
 70
     1
 10
0.0
 20
0.0
 30
0.0
  3
*D51
  1

  0
LINE
  5
760
  8
0
 62
     0
 10
1826.3631804649219
 20
895.27942421903106
 30
0.0
 11
1881.6454677405341
 21
895.27942421903106
 31
0.0
  0
LINE
  5
761
  8
0
 62
     0
 10
1827.240692163278
 20
913.27942421903117
 30
0.0
 11
1881.6454677405341
 21
913.27942421903117
 31
0.0
  0
LINE
  5
762
  8
0
 62
     0
 10
1880.395467740535
 20
897.77942421903106
 30
0.0
 11
1880.395467740535
 21
910.77942421903117
 31
0.0
  0
SOLID
  5
763
  8
0
 62
     0
 10
1879.978801073868
 20
897.77942421903106
 30
0.0
 11
1880.812134407201
 21
897.77942421903106
 31
0.0
 12
1880.395467740535
 22
895.27942421903106
 32
0.0
 13
1880.395467740535
 23
895.27942421903106
 33
0.0
  0
SOLID
  5
764
  8
0
 62
     0
 10
1879.978801073868
 20
910.77942421903117
 30
0.0
 11
1880.812134407201
 21
910.77942421903117
 31
0.0
 12
1880.395467740535
 22
913.27942421903117
 32
0.0
 13
1880.395467740535
 23
913.27942421903117
 33
0.0
  0
INSERT
  5
765
  8
0
  2
*U114
 10
0.0
 20
0.0
 30
0.0
  0
POINT
  5
766
  8
DEFPOINTS
 62
     0
 10
1825.7381804649219
 20
895.27942421903106
 30
0.0
  0
POINT
  5
767
  8
DEFPOINTS
 62
     0
 10
1826.615692163278
 20
913.27942421903117
 30
0.0
  0
POINT
  5
768
  8
DEFPOINTS
 62
     0
 10
1880.395467740535
 20
913.27942421903117
 30
0.0
  0
ENDBLK
  5
75E
  8
0
  0
BLOCK
  8
0
  2
*D52
 70
     1
 10
0.0
 20
0.0
 30
0.0
  3
*D52
  1

  0
LINE
  5
778
  8
0
 62
     0
 10
1826.615692163278
 20
913.90442421903117
 30
0.0
 11
1826.615692163278
 21
919.74022586530828
 31
0.0
  0
LINE
  5
779
  8
0
 62
     0
 10
1844.6156921632739
 20
913.90442421903117
 30
0.0
 11
1844.6156921632739
 21
919.74022586530828
 31
0.0
  0
LINE
  5
77A
  8
0
 62
     0
 10
1829.115692163278
 20
918.49022586530816
 30
0.0
 11
1842.1156921632739
 21
918.49022586530816
 31
0.0
  0
SOLID
  5
77B
  8
0
 62
     0
 10
1829.115692163278
 20
918.90689253197479
 30
0.0
 11
1829.115692163278
 21
918.07355919864165
 31
0.0
 12
1826.615692163278
 22
918.49022586530816
 32
0.0
 13
1826.615692163278
 23
918.49022586530816
 33
0.0
  0
SOLID
  5
77C
  8
0
 62
     0
 10
1842.1156921632739
 20
918.90689253197479
 30
0.0
 11
1842.1156921632739
 21
918.07355919864165
 31
0.0
 12
1844.6156921632739
 22
918.49022586530816
 32
0.0
 13
1844.6156921632739
 23
918.49022586530816
 33
0.0
  0
INSERT
  5
77D
  8
0
  2
*U115
 10
0.0
 20
0.0
 30
0.0
  0
POINT
  5
77E
  8
DEFPOINTS
 62
     0
 10
1826.615692163278
 20
913.27942421903117
 30
0.0
  0
POINT
  5
77F
  8
DEFPOINTS
 62
     0
 10
1844.6156921632739
 20
913.27942421903117
 30
0.0
  0
POINT
  5
780
  8
DEFPOINTS
 62
     0
 10
1844.6156921632739
 20
918.49022586530816
 30
0.0
  0
ENDBLK
  5
776
  8
0
  0
BLOCK
  8
0
  2
*D53
 70
     1
 10
0.0
 20
0.0
 30
0.0
  3
*D53
  1

  0
LINE
  5
790
  8
0
 62
     0
 10
1845.240692163276
 20
321.27942421903123
 30
0.0
 11
1871.6907640629199
 21
321.27942421903123
 31
0.0
  0
LINE
  5
791
  8
0
 62
     0
 10
1841.240692163278
 20
301.27942421903123
 30
0.0
 11
1871.6907640629199
 21
301.27942421903123
 31
0.0
  0
LINE
  5
792
  8
0
 62
     0
 10
1870.440764062919
 20
318.77942421903123
 30
0.0
 11
1870.440764062919
 21
303.77942421903123
 31
0.0
  0
SOLID
  5
793
  8
0
 62
     0
 10
1870.024097396253
 20
318.77942421903123
 30
0.0
 11
1870.857430729586
 21
318.77942421903123
 31
0.0
 12
1870.440764062919
 22
321.27942421903123
 32
0.0
 13
1870.440764062919
 23
321.27942421903123
 33
0.0
  0
SOLID
  5
794
  8
0
 62
     0
 10
1870.024097396253
 20
303.77942421903123
 30
0.0
 11
1870.857430729586
 21
303.77942421903123
 31
0.0
 12
1870.440764062919
 22
301.27942421903123
 32
0.0
 13
1870.440764062919
 23
301.27942421903123
 33
0.0
  0
INSERT
  5
795
  8
0
  2
*U116
 10
0.0
 20
0.0
 30
0.0
  0
POINT
  5
796
  8
DEFPOINTS
 62
     0
 10
1844.615692163276
 20
321.27942421903123
 30
0.0
  0
POINT
  5
797
  8
DEFPOINTS
 62
     0
 10
1840.615692163278
 20
301.27942421903123
 30
0.0
  0
POINT
  5
798
  8
DEFPOINTS
 62
     0
 10
1870.440764062919
 20
301.27942421903123
 30
0.0
  0
ENDBLK
  5
78E
  8
0
  0
BLOCK
  8
0
  2
*D54
 70
     1
 10
0.0
 20
0.0
 30
0.0
  3
*D54
  1

  0
LINE
  5
7AA
  8
0
 62
     0
 10
1840.6156921632789
 20
77.904424219031171
 30
0.0
 11
1840.6156921632789
 21
96.963731503184135
 31
0.0
  0
LINE
  5
7AB
  8
0
 62
     0
 10
1844.615692163278
 20
57.904424219031199
 30
0.0
 11
1844.615692163278
 21
96.963731503184135
 31
0.0
  0
LINE
  5
7AC
  8
0
 62
     0
 10
1838.1156921632789
 20
95.713731503184135
 30
0.0
 11
1835.6156921632789
 21
95.713731503184135
 31
0.0
  0
LINE
  5
7AD
  8
0
 62
     0
 10
1847.1156921632769
 20
95.713731503184135
 30
0.0
 11
1849.6156921632769
 21
95.713731503184135
 31
0.0
  0
LINE
  5
7AE
  8
0
 62
     0
 10
1840.6156921632789
 20
95.713731503184135
 30
0.0
 11
1844.615692163278
 21
95.713731503184135
 31
0.0
  0
SOLID
  5
7AF
  8
0
 62
     0
 10
1838.1156921632789
 20
96.130398169850793
 30
0.0
 11
1838.1156921632789
 21
95.297064836517478
 31
0.0
 12
1840.6156921632789
 22
95.713731503184135
 32
0.0
 13
1840.6156921632789
 23
95.713731503184135
 33
0.0
  0
SOLID
  5
7B0
  8
0
 62
     0
 10
1847.1156921632769
 20
96.130398169850793
 30
0.0
 11
1847.1156921632769
 21
95.297064836517478
 31
0.0
 12
1844.615692163278
 22
95.713731503184135
 32
0.0
 13
1844.615692163278
 23
95.713731503184135
 33
0.0
  0
INSERT
  5
7B1
  8
0
  2
*U117
 10
0.0
 20
0.0
 30
0.0
  0
POINT
  5
7B2
  8
DEFPOINTS
 62
     0
 10
1840.6156921632789
 20
77.279424219031171
 30
0.0
  0
POINT
  5
7B3
  8
DEFPOINTS
 62
     0
 10
1844.615692163278
 20
57.279424219031199
 30
0.0
  0
POINT
  5
7B4
  8
DEFPOINTS
 62
     0
 10
1844.615692163278
 20
95.713731503184135
 30
0.0
  0
ENDBLK
  5
7A8
  8
0
  0
BLOCK
  8
0
  2
*D55
 70
     1
 10
0.0
 20
0.0
 30
0.0
  3
*D55
  1

  0
LINE
  5
7C4
  8
0
 62
     0
 10
1825.990692163278
 20
77.279424219031199
 30
0.0
 11
1802.6921610158211
 21
77.279424219031213
 31
0.0
  0
LINE
  5
7C5
  8
0
 62
     0
 10
1825.990692163278
 20
301.27942421903123
 30
0.0
 11
1802.6921610158211
 21
301.27942421903123
 31
0.0
  0
LINE
  5
7C6
  8
0
 62
     0
 10
1803.9421610158211
 20
79.779424219031213
 30
0.0
 11
1803.9421610158211
 21
298.77942421903123
 31
0.0
  0
SOLID
  5
7C7
  8
0
 62
     0
 10
1803.5254943491541
 20
79.779424219031213
 30
0.0
 11
1804.3588276824869
 21
79.779424219031213
 31
0.0
 12
1803.9421610158211
 22
77.279424219031213
 32
0.0
 13
1803.9421610158211
 23
77.279424219031213
 33
0.0
  0
SOLID
  5
7C8
  8
0
 62
     0
 10
1803.5254943491541
 20
298.77942421903123
 30
0.0
 11
1804.3588276824869
 21
298.77942421903123
 31
0.0
 12
1803.9421610158211
 22
301.27942421903123
 32
0.0
 13
1803.9421610158211
 23
301.27942421903123
 33
0.0
  0
INSERT
  5
7C9
  8
0
  2
*U118
 10
0.0
 20
0.0
 30
0.0
  0
POINT
  5
7CA
  8
DEFPOINTS
 62
     0
 10
1826.615692163278
 20
77.279424219031199
 30
0.0
  0
POINT
  5
7CB
  8
DEFPOINTS
 62
     0
 10
1826.615692163278
 20
301.27942421903123
 30
0.0
  0
POINT
  5
7CC
  8
DEFPOINTS
 62
     0
 10
1803.9421610158211
 20
301.27942421903123
 30
0.0
  0
ENDBLK
  5
7C2
  8
0
  0
BLOCK
  8
0
  2
*D56
 70
     1
 10
0.0
 20
0.0
 30
0.0
  3
*D56
  1

  0
LINE
  5
7DC
  8
0
 62
     0
 10
1825.990692163278
 20
-76.720575780968801
 30
0.0
 11
1785.3334195881821
 21
-76.720575780968801
 31
0.0
  0
LINE
  5
7DD
  8
0
 62
     0
 10
1825.990692163278
 20
-22.720575780968801
 30
0.0
 11
1785.3334195881821
 21
-22.72057578096879
 31
0.0
  0
LINE
  5
7DE
  8
0
 62
     0
 10
1786.5834195881821
 20
-74.220575780968801
 30
0.0
 11
1786.5834195881821
 21
-25.22057578096879
 31
0.0
  0
SOLID
  5
7DF
  8
0
 62
     0
 10
1786.1667529215149
 20
-74.220575780968801
 30
0.0
 11
1787.0000862548479
 21
-74.220575780968801
 31
0.0
 12
1786.5834195881821
 22
-76.720575780968801
 32
0.0
 13
1786.5834195881821
 23
-76.720575780968801
 33
0.0
  0
SOLID
  5
7E0
  8
0
 62
     0
 10
1786.1667529215149
 20
-25.22057578096879
 30
0.0
 11
1787.0000862548479
 21
-25.22057578096879
 31
0.0
 12
1786.5834195881821
 22
-22.72057578096879
 32
0.0
 13
1786.5834195881821
 23
-22.72057578096879
 33
0.0
  0
INSERT
  5
7E1
  8
0
  2
*U119
 10
0.0
 20
0.0
 30
0.0
  0
POINT
  5
7E2
  8
DEFPOINTS
 62
     0
 10
1826.615692163278
 20
-76.720575780968801
 30
0.0
  0
POINT
  5
7E3
  8
DEFPOINTS
 62
     0
 10
1826.615692163278
 20
-22.720575780968801
 30
0.0
  0
POINT
  5
7E4
  8
DEFPOINTS
 62
     0
 10
1786.5834195881821
 20
-22.72057578096879
 30
0.0
  0
ENDBLK
  5
7DA
  8
0
  0
BLOCK
  8
0
  2
*D57
 70
     1
 10
0.0
 20
0.0
 30
0.0
  3
*D57
  1

  0
LINE
  5
7F4
  8
0
 62
     0
 10
1394.6156921632769
 20
-137.3455757809688
 30
0.0
 11
1394.6156921632769
 21
-247.92630354212361
 31
0.0
  0
LINE
  5
7F5
  8
0
 62
     0
 10
1844.615692163278
 20
-137.3455757809688
 30
0.0
 11
1844.615692163278
 21
-247.92630354212361
 31
0.0
  0
LINE
  5
7F6
  8
0
 62
     0
 10
1397.115692163278
 20
-246.67630354212361
 30
0.0
 11
1842.115692163278
 21
-246.67630354212361
 31
0.0
  0
SOLID
  5
7F7
  8
0
 62
     0
 10
1397.115692163278
 20
-246.25963687545689
 30
0.0
 11
1397.115692163278
 21
-247.09297020879029
 31
0.0
 12
1394.6156921632769
 22
-246.67630354212361
 32
0.0
 13
1394.6156921632769
 23
-246.67630354212361
 33
0.0
  0
SOLID
  5
7F8
  8
0
 62
     0
 10
1842.115692163278
 20
-246.25963687545689
 30
0.0
 11
1842.115692163278
 21
-247.09297020879029
 31
0.0
 12
1844.615692163278
 22
-246.67630354212361
 32
0.0
 13
1844.615692163278
 23
-246.67630354212361
 33
0.0
  0
INSERT
  5
7F9
  8
0
  2
*U120
 10
0.0
 20
0.0
 30
0.0
  0
POINT
  5
7FA
  8
DEFPOINTS
 62
     0
 10
1394.6156921632769
 20
-136.7205757809688
 30
0.0
  0
POINT
  5
7FB
  8
DEFPOINTS
 62
     0
 10
1844.615692163278
 20
-136.7205757809688
 30
0.0
  0
POINT
  5
7FC
  8
DEFPOINTS
 62
     0
 10
1844.615692163278
 20
-246.67630354212361
 30
0.0
  0
ENDBLK
  5
7F2
  8
0
  0
BLOCK
  8
0
  2
*D58
 70
     1
 10
0.0
 20
0.0
 30
0.0
  3
*D58
  1

  0
LINE
  5
800
  8
0
 62
     0
 10
1845.240692163278
 20
-137.3455757809688
 30
0.0
 11
1902.865422417804
 21
-137.3455757809688
 31
0.0
  0
LINE
  5
801
  8
0
 62
     0
 10
1845.2406921632739
 20
913.90442421903117
 30
0.0
 11
1902.865422417804
 21
913.90442421903117
 31
0.0
  0
LINE
  5
802
  8
0
 62
     0
 10
1901.615422417804
 20
-134.8455757809688
 30
0.0
 11
1901.615422417804
 21
911.40442421903117
 31
0.0
  0
SOLID
  5
803
  8
0
 62
     0
 10
1901.198755751137
 20
-134.8455757809688
 30
0.0
 11
1902.032089084471
 21
-134.8455757809688
 31
0.0
 12
1901.615422417804
 22
-137.3455757809688
 32
0.0
 13
1901.615422417804
 23
-137.3455757809688
 33
0.0
  0
SOLID
  5
804
  8
0
 62
     0
 10
1901.1987557511379
 20
911.40442421903117
 30
0.0
 11
1902.032089084471
 21
911.40442421903117
 31
0.0
 12
1901.615422417804
 22
913.90442421903117
 32
0.0
 13
1901.615422417804
 23
913.90442421903117
 33
0.0
  0
INSERT
  5
805
  8
0
  2
*U121
 10
0.0
 20
0.0
 30
0.0
  0
POINT
  5
806
  8
DEFPOINTS
 62
     0
 10
1844.615692163278
 20
-137.3455757809688
 30
0.0
  0
POINT
  5
807
  8
DEFPOINTS
 62
     0
 10
1844.6156921632739
 20
913.90442421903117
 30
0.0
  0
POINT
  5
808
  8
DEFPOINTS
 62
     0
 10
1901.615422417804
 20
913.90442421903117
 30
0.0
  0
ENDBLK
  5
80A
  8
0
  0
BLOCK
  8
0
  2
*D59
 70
     1
 10
0.0
 20
0.0
 30
0.0
  3
*D59
  1

  0
LINE
  5
819
  8
0
 62
     0
 10
1845.240692163278
 20
-136.7205757809688
 30
0.0
 11
1869.312300858413
 21
-136.7205757809688
 31
0.0
  0
LINE
  5
81A
  8
0
 62
     0
 10
1845.2406921632739
 20
913.27942421903117
 30
0.0
 11
1869.312300858413
 21
913.27942421903117
 31
0.0
  0
LINE
  5
81B
  8
0
 62
     0
 10
1868.062300858413
 20
-134.2205757809688
 30
0.0
 11
1868.062300858413
 21
910.77942421903117
 31
0.0
  0
SOLID
  5
81C
  8
0
 62
     0
 10
1867.645634191746
 20
-134.2205757809688
 30
0.0
 11
1868.47896752508
 21
-134.2205757809688
 31
0.0
 12
1868.062300858413
 22
-136.7205757809688
 32
0.0
 13
1868.062300858413
 23
-136.7205757809688
 33
0.0
  0
SOLID
  5
81D
  8
0
 62
     0
 10
1867.6456341917469
 20
910.77942421903117
 30
0.0
 11
1868.47896752508
 21
910.77942421903117
 31
0.0
 12
1868.062300858413
 22
913.27942421903117
 32
0.0
 13
1868.062300858413
 23
913.27942421903117
 33
0.0
  0
INSERT
  5
81E
  8
0
  2
*U122
 10
0.0
 20
0.0
 30
0.0
  0
POINT
  5
81F
  8
DEFPOINTS
 62
     0
 10
1844.615692163278
 20
-136.7205757809688
 30
0.0
  0
POINT
  5
820
  8
DEFPOINTS
 62
     0
 10
1844.6156921632739
 20
913.27942421903117
 30
0.0
  0
POINT
  5
821
  8
DEFPOINTS
 62
     0
 10
1868.062300858413
 20
913.27942421903117
 30
0.0
  0
ENDBLK
  5
817
  8
0
  0
BLOCK
  8
0
  2
*D60
 70
     1
 10
0.0
 20
0.0
 30
0.0
  3
*D60
  1

  0
LINE
  5
831
  8
0
 62
     0
 10
2051.4532597059542
 20
913.90442421903117
 30
0.0
 11
2051.4532597059542
 21
995.95534641957579
 31
0.0
  0
LINE
  5
832
  8
0
 62
     0
 10
2391.4532597059551
 20
913.90442421903117
 30
0.0
 11
2391.4532597059551
 21
995.95534641957579
 31
0.0
  0
LINE
  5
833
  8
0
 62
     0
 10
2053.9532597059551
 20
994.7053464195759
 30
0.0
 11
2388.9532597059551
 21
994.7053464195759
 31
0.0
  0
SOLID
  5
834
  8
0
 62
     0
 10
2053.9532597059551
 20
995.12201308624242
 30
0.0
 11
2053.9532597059551
 21
994.28867975290939
 31
0.0
 12
2051.4532597059542
 22
994.7053464195759
 32
0.0
 13
2051.4532597059542
 23
994.7053464195759
 33
0.0
  0
SOLID
  5
835
  8
0
 62
     0
 10
2388.9532597059551
 20
995.12201308624242
 30
0.0
 11
2388.9532597059551
 21
994.28867975290939
 31
0.0
 12
2391.4532597059551
 22
994.7053464195759
 32
0.0
 13
2391.4532597059551
 23
994.7053464195759
 33
0.0
  0
INSERT
  5
836
  8
0
  2
*U123
 10
0.0
 20
0.0
 30
0.0
  0
POINT
  5
837
  8
DEFPOINTS
 62
     0
 10
2051.4532597059542
 20
913.27942421903117
 30
0.0
  0
POINT
  5
838
  8
DEFPOINTS
 62
     0
 10
2391.4532597059551
 20
913.27942421903117
 30
0.0
  0
POINT
  5
839
  8
DEFPOINTS
 62
     0
 10
2391.4532597059551
 20
994.7053464195759
 30
0.0
  0
ENDBLK
  5
82F
  8
0
  0
BLOCK
  8
0
  2
*D61
 70
     1
 10
0.0
 20
0.0
 30
0.0
  3
*D61
  1

  0
LINE
  5
87D
  8
0
 62
     0
 10
2081.4532597059551
 20
301.904424219031
 30
0.0
 11
2081.4532597059551
 21
363.00687701542302
 31
0.0
  0
LINE
  5
87E
  8
0
 62
     0
 10
2361.4532597059551
 20
301.90442421903123
 30
0.0
 11
2361.4532597059551
 21
363.00687701542302
 31
0.0
  0
LINE
  5
87F
  8
0
 62
     0
 10
2083.9532597059551
 20
361.75687701542302
 30
0.0
 11
2358.9532597059551
 21
361.75687701542302
 31
0.0
  0
SOLID
  5
880
  8
0
 62
     0
 10
2083.9532597059551
 20
362.1735436820897
 30
0.0
 11
2083.9532597059551
 21
361.34021034875627
 31
0.0
 12
2081.4532597059551
 22
361.75687701542302
 32
0.0
 13
2081.4532597059551
 23
361.75687701542302
 33
0.0
  0
SOLID
  5
881
  8
0
 62
     0
 10
2358.9532597059551
 20
362.1735436820897
 30
0.0
 11
2358.9532597059551
 21
361.34021034875627
 31
0.0
 12
2361.4532597059551
 22
361.75687701542302
 32
0.0
 13
2361.4532597059551
 23
361.75687701542302
 33
0.0
  0
INSERT
  5
882
  8
0
  2
*U125
 10
0.0
 20
0.0
 30
0.0
  0
POINT
  5
883
  8
DEFPOINTS
 62
     0
 10
2081.4532597059551
 20
301.279424219031
 30
0.0
  0
POINT
  5
884
  8
DEFPOINTS
 62
     0
 10
2361.4532597059551
 20
301.27942421903123
 30
0.0
  0
POINT
  5
885
  8
DEFPOINTS
 62
     0
 10
2361.4532597059551
 20
361.75687701542302
 30
0.0
  0
ENDBLK
  5
848
  8
0
  0
BLOCK
  8
0
  2
*D62
 70
     1
 10
0.0
 20
0.0
 30
0.0
  3
*D62
  1

  0
LINE
  5
870
  8
0
 62
     0
 10
2066.4532597059551
 20
321.90442421903123
 30
0.0
 11
2066.4532597059551
 21
413.04071601554728
 31
0.0
  0
LINE
  5
871
  8
0
 62
     0
 10
2376.453259705956
 20
316.90442421903123
 30
0.0
 11
2376.453259705956
 21
413.04071601554728
 31
0.0
  0
LINE
  5
872
  8
0
 62
     0
 10
2068.953259705956
 20
411.79071601554728
 30
0.0
 11
2373.953259705956
 21
411.79071601554728
 31
0.0
  0
SOLID
  5
873
  8
0
 62
     0
 10
2068.953259705956
 20
412.2073826822139
 30
0.0
 11
2068.953259705956
 21
411.37404934888059
 31
0.0
 12
2066.4532597059551
 22
411.79071601554728
 32
0.0
 13
2066.4532597059551
 23
411.79071601554728
 33
0.0
  0
SOLID
  5
874
  8
0
 62
     0
 10
2373.953259705956
 20
412.2073826822139
 30
0.0
 11
2373.953259705956
 21
411.37404934888059
 31
0.0
 12
2376.453259705956
 22
411.79071601554728
 32
0.0
 13
2376.453259705956
 23
411.79071601554728
 33
0.0
  0
INSERT
  5
875
  8
0
  2
*U124
 10
0.0
 20
0.0
 30
0.0
  0
POINT
  5
876
  8
DEFPOINTS
 62
     0
 10
2066.4532597059551
 20
321.27942421903123
 30
0.0
  0
POINT
  5
877
  8
DEFPOINTS
 62
     0
 10
2376.453259705956
 20
316.27942421903123
 30
0.0
  0
POINT
  5
878
  8
DEFPOINTS
 62
     0
 10
2376.453259705956
 20
411.79071601554728
 30
0.0
  0
ENDBLK
  5
860
  8
0
  0
BLOCK
  8
0
  2
*D63
 70
     1
 10
0.0
 20
0.0
 30
0.0
  3
*D63
  1

  0
LINE
  5
899
  8
0
 62
     0
 10
2081.4532597059551
 20
298.90442421903123
 30
0.0
 11
2081.4532597059551
 21
356.63241938279413
 31
0.0
  0
LINE
  5
89A
  8
0
 62
     0
 10
2361.4532597059551
 20
298.90442421903123
 30
0.0
 11
2361.4532597059551
 21
356.63241938279413
 31
0.0
  0
LINE
  5
89B
  8
0
 62
     0
 10
2083.9532597059551
 20
355.38241938279413
 30
0.0
 11
2358.9532597059551
 21
355.38241938279413
 31
0.0
  0
SOLID
  5
89C
  8
0
 62
     0
 10
2083.9532597059551
 20
355.79908604946081
 30
0.0
 11
2083.9532597059551
 21
354.96575271612738
 31
0.0
 12
2081.4532597059551
 22
355.38241938279413
 32
0.0
 13
2081.4532597059551
 23
355.38241938279413
 33
0.0
  0
SOLID
  5
89D
  8
0
 62
     0
 10
2358.9532597059551
 20
355.79908604946081
 30
0.0
 11
2358.9532597059551
 21
354.96575271612738
 31
0.0
 12
2361.4532597059551
 22
355.38241938279413
 32
0.0
 13
2361.4532597059551
 23
355.38241938279413
 33
0.0
  0
INSERT
  5
89E
  8
0
  2
*U126
 10
0.0
 20
0.0
 30
0.0
  0
POINT
  5
89F
  8
DEFPOINTS
 62
     0
 10
2081.4532597059551
 20
298.279424219031
 30
0.0
  0
POINT
  5
8A0
  8
DEFPOINTS
 62
     0
 10
2361.4532597059551
 20
298.27942421903123
 30
0.0
  0
POINT
  5
8A1
  8
DEFPOINTS
 62
     0
 10
2361.4532597059551
 20
355.38241938279413
 30
0.0
  0
ENDBLK
  5
897
  8
0
  0
BLOCK
  8
0
  2
*D64
 70
     1
 10
0.0
 20
0.0
 30
0.0
  3
*D64
  1

  0
LINE
  5
8B1
  8
0
 62
     0
 10
2066.4532597059551
 20
313.90442421903123
 30
0.0
 11
2066.4532597059551
 21
401.23364768134979
 31
0.0
  0
LINE
  5
8B2
  8
0
 62
     0
 10
2376.453259705956
 20
313.90442421903123
 30
0.0
 11
2376.453259705956
 21
401.23364768134979
 31
0.0
  0
LINE
  5
8B3
  8
0
 62
     0
 10
2068.9532597059551
 20
399.98364768134979
 30
0.0
 11
2373.953259705956
 21
399.98364768134979
 31
0.0
  0
SOLID
  5
8B4
  8
0
 62
     0
 10
2068.9532597059551
 20
400.40031434801631
 30
0.0
 11
2068.9532597059551
 21
399.56698101468322
 31
0.0
 12
2066.4532597059551
 22
399.98364768134979
 32
0.0
 13
2066.4532597059551
 23
399.98364768134979
 33
0.0
  0
SOLID
  5
8B5
  8
0
 62
     0
 10
2373.953259705956
 20
400.40031434801631
 30
0.0
 11
2373.953259705956
 21
399.56698101468322
 31
0.0
 12
2376.453259705956
 22
399.98364768134979
 32
0.0
 13
2376.453259705956
 23
399.98364768134979
 33
0.0
  0
INSERT
  5
8B6
  8
0
  2
*U127
 10
0.0
 20
0.0
 30
0.0
  0
POINT
  5
8B7
  8
DEFPOINTS
 62
     0
 10
2066.4532597059551
 20
313.27942421903123
 30
0.0
  0
POINT
  5
8B8
  8
DEFPOINTS
 62
     0
 10
2376.453259705956
 20
313.27942421903123
 30
0.0
  0
POINT
  5
8B9
  8
DEFPOINTS
 62
     0
 10
2376.453259705956
 20
399.98364768134979
 30
0.0
  0
ENDBLK
  5
8AF
  8
0
  0
BLOCK
  8
0
  2
*D65
 70
     1
 10
0.0
 20
0.0
 30
0.0
  3
*D65
  1

  0
LINE
  5
8C9
  8
0
 62
     0
 10
2083.828259705956
 20
77.279424219031199
 30
0.0
 11
1984.782619461339
 21
77.279424219031242
 31
0.0
  0
LINE
  5
8CA
  8
0
 62
     0
 10
2083.8282597059542
 20
301.279424219031
 30
0.0
 11
1984.782619461339
 21
301.279424219031
 31
0.0
  0
LINE
  5
8CB
  8
0
 62
     0
 10
1986.032619461339
 20
79.779424219031242
 30
0.0
 11
1986.032619461339
 21
298.77942421903123
 31
0.0
  0
SOLID
  5
8CC
  8
0
 62
     0
 10
1985.615952794672
 20
79.779424219031242
 30
0.0
 11
1986.449286128006
 21
79.779424219031242
 31
0.0
 12
1986.032619461339
 22
77.279424219031242
 32
0.0
 13
1986.032619461339
 23
77.279424219031242
 33
0.0
  0
SOLID
  5
8CD
  8
0
 62
     0
 10
1985.615952794672
 20
298.77942421903123
 30
0.0
 11
1986.449286128006
 21
298.77942421903123
 31
0.0
 12
1986.032619461339
 22
301.279424219031
 32
0.0
 13
1986.032619461339
 23
301.279424219031
 33
0.0
  0
INSERT
  5
8CE
  8
0
  2
*U128
 10
0.0
 20
0.0
 30
0.0
  0
POINT
  5
8CF
  8
DEFPOINTS
 62
     0
 10
2084.453259705956
 20
77.279424219031199
 30
0.0
  0
POINT
  5
8D0
  8
DEFPOINTS
 62
     0
 10
2084.4532597059551
 20
301.279424219031
 30
0.0
  0
POINT
  5
8D1
  8
DEFPOINTS
 62
     0
 10
1986.032619461339
 20
301.279424219031
 30
0.0
  0
ENDBLK
  5
8C7
  8
0
  0
BLOCK
  8
0
  2
*D66
 70
     1
 10
0.0
 20
0.0
 30
0.0
  3
*D66
  1

  0
LINE
  5
8E1
  8
0
 62
     0
 10
2073.8282597059551
 20
321.27942421903123
 30
0.0
 11
1962.3304753799091
 21
321.27942421903123
 31
0.0
  0
LINE
  5
8E2
  8
0
 62
     0
 10
2073.8282597059551
 20
57.279424219031199
 30
0.0
 11
1962.3304753799091
 21
57.27942421903122
 31
0.0
  0
LINE
  5
8E3
  8
0
 62
     0
 10
1963.5804753799091
 20
318.77942421903123
 30
0.0
 11
1963.5804753799091
 21
59.77942421903122
 31
0.0
  0
SOLID
  5
8E4
  8
0
 62
     0
 10
1963.1638087132419
 20
318.77942421903123
 30
0.0
 11
1963.9971420465761
 21
318.77942421903123
 31
0.0
 12
1963.5804753799091
 22
321.27942421903123
 32
0.0
 13
1963.5804753799091
 23
321.27942421903123
 33
0.0
  0
SOLID
  5
8E5
  8
0
 62
     0
 10
1963.1638087132419
 20
59.77942421903122
 30
0.0
 11
1963.9971420465761
 21
59.77942421903122
 31
0.0
 12
1963.5804753799091
 22
57.27942421903122
 32
0.0
 13
1963.5804753799091
 23
57.27942421903122
 33
0.0
  0
INSERT
  5
8E6
  8
0
  2
*U129
 10
0.0
 20
0.0
 30
0.0
  0
POINT
  5
8E7
  8
DEFPOINTS
 62
     0
 10
2074.4532597059551
 20
321.27942421903123
 30
0.0
  0
POINT
  5
8E8
  8
DEFPOINTS
 62
     0
 10
2074.4532597059551
 20
57.279424219031199
 30
0.0
  0
POINT
  5
8E9
  8
DEFPOINTS
 62
     0
 10
1963.5804753799091
 20
57.27942421903122
 30
0.0
  0
ENDBLK
  5
8DF
  8
0
  0
BLOCK
  8
0
  2
*D67
 70
     1
 10
0.0
 20
0.0
 30
0.0
  3
*D67
  1

  0
LINE
  5
8F9
  8
0
 62
     0
 10
2187.8282597059551
 20
-76.720575780968815
 30
0.0
 11
2159.092886060926
 21
-76.720575780968815
 31
0.0
  0
LINE
  5
8FA
  8
0
 62
     0
 10
2187.8282597059551
 20
-22.720575780968801
 30
0.0
 11
2159.092886060926
 21
-22.72057578096879
 31
0.0
  0
LINE
  5
8FB
  8
0
 62
     0
 10
2160.3428860609251
 20
-74.220575780968815
 30
0.0
 11
2160.3428860609251
 21
-25.220575780968801
 31
0.0
  0
SOLID
  5
8FC
  8
0
 62
     0
 10
2159.9262193942591
 20
-74.220575780968815
 30
0.0
 11
2160.7595527275921
 21
-74.220575780968815
 31
0.0
 12
2160.3428860609251
 22
-76.720575780968815
 32
0.0
 13
2160.3428860609251
 23
-76.720575780968815
 33
0.0
  0
SOLID
  5
8FD
  8
0
 62
     0
 10
2159.9262193942591
 20
-25.220575780968801
 30
0.0
 11
2160.7595527275921
 21
-25.220575780968801
 31
0.0
 12
2160.3428860609251
 22
-22.720575780968801
 32
0.0
 13
2160.3428860609251
 23
-22.720575780968801
 33
0.0
  0
INSERT
  5
8FE
  8
0
  2
*U130
 10
0.0
 20
0.0
 30
0.0
  0
POINT
  5
8FF
  8
DEFPOINTS
 62
     0
 10
2188.4532597059551
 20
-76.720575780968815
 30
0.0
  0
POINT
  5
900
  8
DEFPOINTS
 62
     0
 10
2188.453259705956
 20
-22.720575780968801
 30
0.0
  0
POINT
  5
901
  8
DEFPOINTS
 62
     0
 10
2160.3428860609251
 20
-22.720575780968801
 30
0.0
  0
ENDBLK
  5
8F7
  8
0
  0
BLOCK
  8
0
  2
*D68
 70
     1
 10
0.0
 20
0.0
 30
0.0
  3
*D68
  1

  0
LINE
  5
911
  8
0
 62
     0
 10
2184.4532597059551
 20
-73.345575780968815
 30
0.0
 11
2184.4532597059551
 21
-116.0130066376895
 31
0.0
  0
LINE
  5
912
  8
0
 62
     0
 10
2258.453259705956
 20
-73.345575780968815
 30
0.0
 11
2258.453259705956
 21
-116.0130066376895
 31
0.0
  0
LINE
  5
913
  8
0
 62
     0
 10
2186.9532597059551
 20
-114.7630066376895
 30
0.0
 11
2255.953259705956
 21
-114.7630066376895
 31
0.0
  0
SOLID
  5
914
  8
0
 62
     0
 10
2186.9532597059551
 20
-114.3463399710229
 30
0.0
 11
2186.9532597059551
 21
-115.1796733043562
 31
0.0
 12
2184.4532597059551
 22
-114.7630066376895
 32
0.0
 13
2184.4532597059551
 23
-114.7630066376895
 33
0.0
  0
SOLID
  5
915
  8
0
 62
     0
 10
2255.953259705956
 20
-114.3463399710229
 30
0.0
 11
2255.953259705956
 21
-115.1796733043562
 31
0.0
 12
2258.453259705956
 22
-114.7630066376895
 32
0.0
 13
2258.453259705956
 23
-114.7630066376895
 33
0.0
  0
INSERT
  5
916
  8
0
  2
*U131
 10
0.0
 20
0.0
 30
0.0
  0
POINT
  5
917
  8
DEFPOINTS
 62
     0
 10
2184.4532597059551
 20
-72.720575780968815
 30
0.0
  0
POINT
  5
918
  8
DEFPOINTS
 62
     0
 10
2258.453259705956
 20
-72.720575780968815
 30
0.0
  0
POINT
  5
919
  8
DEFPOINTS
 62
     0
 10
2258.453259705956
 20
-114.7630066376895
 30
0.0
  0
ENDBLK
  5
90F
  8
0
  0
BLOCK
  8
0
  2
*D69
 70
     1
 10
0.0
 20
0.0
 30
0.0
  3
*D69
  1

  0
LINE
  5
929
  8
0
 62
     0
 10
2392.078259705956
 20
913.27942421903117
 30
0.0
 11
2490.3390192759321
 21
913.27942421903117
 31
0.0
  0
LINE
  5
92A
  8
0
 62
     0
 10
2392.078259705956
 20
-136.7205757809688
 30
0.0
 11
2490.3390192759321
 21
-136.7205757809688
 31
0.0
  0
LINE
  5
92B
  8
0
 62
     0
 10
2489.089019275933
 20
910.77942421903117
 30
0.0
 11
2489.089019275933
 21
-134.2205757809688
 31
0.0
  0
SOLID
  5
92C
  8
0
 62
     0
 10
2488.672352609266
 20
910.77942421903117
 30
0.0
 11
2489.505685942599
 21
910.77942421903117
 31
0.0
 12
2489.089019275933
 22
913.27942421903117
 32
0.0
 13
2489.089019275933
 23
913.27942421903117
 33
0.0
  0
SOLID
  5
92D
  8
0
 62
     0
 10
2488.672352609266
 20
-134.2205757809688
 30
0.0
 11
2489.505685942599
 21
-134.2205757809688
 31
0.0
 12
2489.089019275933
 22
-136.7205757809688
 32
0.0
 13
2489.089019275933
 23
-136.7205757809688
 33
0.0
  0
INSERT
  5
92E
  8
0
  2
*U132
 10
0.0
 20
0.0
 30
0.0
  0
POINT
  5
92F
  8
DEFPOINTS
 62
     0
 10
2391.4532597059551
 20
913.27942421903117
 30
0.0
  0
POINT
  5
930
  8
DEFPOINTS
 62
     0
 10
2391.4532597059551
 20
-136.7205757809688
 30
0.0
  0
POINT
  5
931
  8
DEFPOINTS
 62
     0
 10
2489.089019275933
 20
-136.7205757809688
 30
0.0
  0
ENDBLK
  5
927
  8
0
  0
BLOCK
  8
0
  2
*U70
 70
     1
 10
0.0
 20
0.0
 30
0.0
  3
*U70
  1

  0
TEXT
  5
9D3
  8
0
 62
     0
 10
819.46987762576236
 20
-954.84934412051757
 30
0.0
 40
2.5
  1
52
  0
ENDBLK
  5
9D5
  8
0
  0
BLOCK
  8
0
  2
*U71
 70
     1
 10
0.0
 20
0.0
 30
0.0
  3
*U71
  1

  0
TEXT
  5
9D7
  8
0
 62
     0
 10
571.45107721640716
 20
833.26751945712624
 30
0.0
 40
2.5
  1
100,5
 50
90.0
  0
ENDBLK
  5
9D9
  8
0
  0
BLOCK
  8
0
  2
*U72
 70
     1
 10
0.0
 20
0.0
 30
0.0
  3
*U72
  1

  0
TEXT
  5
9DB
  8
0
 62
     0
 10
997.8204673485011
 20
834.21990040950709
 30
0.0
 40
2.5
  1
84,5
 50
90.0
  0
ENDBLK
  5
9DD
  8
0
  0
BLOCK
  8
0
  2
*U73
 70
     1
 10
0.0
 20
0.0
 30
0.0
  3
*U73
  1

  0
TEXT
  5
9DF
  8
0
 62
     0
 10
1245.8965281933729
 20
707.76751945712624
 30
0.0
 40
2.5
  1
120,5
 50
90.0
  0
ENDBLK
  5
9E1
  8
0
  0
BLOCK
  8
0
  2
*U74
 70
     1
 10
0.0
 20
0.0
 30
0.0
  3
*U74
  1

  0
TEXT
  5
9E3
  8
0
 62
     0
 10
644.19263579177175
 20
709.55323374284046
 30
0.0
 40
2.5
  1
100
 50
90.0
  0
ENDBLK
  5
9E5
  8
0
  0
BLOCK
  8
0
  2
*U75
 70
     1
 10
0.0
 20
0.0
 30
0.0
  3
*U75
  1

  0
TEXT
  5
9E7
  8
0
 62
     0
 10
843.68416334004792
 20
524.56840504038553
 30
0.0
 40
2.5
  1
98,2
  0
ENDBLK
  5
9E9
  8
0
  0
BLOCK
  8
0
  2
*U76
 70
     1
 10
0.0
 20
0.0
 30
0.0
  3
*U76
  1

  0
TEXT
  5
A21
  8
0
 62
     0
 10
2218.2389739916689
 20
-184.3741279180631
 30
0.0
 40
2.5
  1
340
  0
ENDBLK
  5
A23
  8
0
  0
BLOCK
  8
0
  2
*X77
 70
     1
 10
0.0
 20
0.0
 30
0.0
  3
*X77
  1

  0
LINE
  5
A63
  8
0
 62
     0
 10
1843.4258989147791
 20
-136.72057578096869
 30
0.0
 11
1844.615692163278
 21
-135.53078253247011
 31
0.0
  0
LINE
  5
A64
  8
0
 62
     0
 10
1838.9357708542441
 20
-136.72057578096889
 30
0.0
 11
1844.615692163278
 21
-131.0406544719356
 31
0.0
  0
LINE
  5
A65
  8
0
 62
     0
 10
1834.44564279371
 20
-136.72057578096889
 30
0.0
 11
1844.615692163278
 21
-126.55052641140099
 31
0.0
  0
LINE
  5
A66
  8
0
 62
     0
 10
1829.9555147331751
 20
-136.72057578096889
 30
0.0
 11
1844.615692163278
 21
-122.06039835086639
 31
0.0
  0
LINE
  5
A67
  8
0
 62
     0
 10
1826.615692163278
 20
-135.57027029033179
 30
0.0
 11
1844.615692163278
 21
-117.57027029033181
 31
0.0
  0
LINE
  5
A68
  8
0
 62
     0
 10
1826.615692163278
 20
-131.08014222979719
 30
0.0
 11
1844.615692163278
 21
-113.0801422297972
 31
0.0
  0
LINE
  5
A69
  8
0
 62
     0
 10
1826.615692163278
 20
-126.5900141692627
 30
0.0
 11
1844.615692163278
 21
-108.5900141692627
 31
0.0
  0
LINE
  5
A6A
  8
0
 62
     0
 10
1826.615692163278
 20
-122.0998861087282
 30
0.0
 11
1844.615692163278
 21
-104.099886108728
 31
0.0
  0
LINE
  5
A6B
  8
0
 62
     0
 10
1826.615692163278
 20
-117.6097580481936
 30
0.0
 11
1844.615692163278
 21
-99.609758048193385
 31
0.0
  0
LINE
  5
A6C
  8
0
 62
     0
 10
1826.615692163278
 20
-113.1196299876588
 30
0.0
 11
1844.615692163278
 21
-95.119629987658854
 31
0.0
  0
LINE
  5
A6D
  8
0
 62
     0
 10
1826.615692163278
 20
-108.62950192712429
 30
0.0
 11
1844.615692163278
 21
-90.629501927124352
 31
0.0
  0
LINE
  5
A6E
  8
0
 62
     0
 10
1826.615692163278
 20
-104.13937386658981
 30
0.0
 11
1844.615692163278
 21
-86.139373866589835
 31
0.0
  0
LINE
  5
A6F
  8
0
 62
     0
 10
1826.615692163278
 20
-99.649245806055205
 30
0.0
 11
1844.615692163278
 21
-81.649245806055205
 31
0.0
  0
LINE
  5
A70
  8
0
 62
     0
 10
1826.615692163278
 20
-95.159117745520689
 30
0.0
 11
1844.615692163278
 21
-77.159117745520575
 31
0.0
  0
LINE
  5
A71
  8
0
 62
     0
 10
1826.615692163278
 20
-90.668989684986045
 30
0.0
 11
1840.5641060672949
 21
-76.720575780969057
 31
0.0
  0
LINE
  5
A72
  8
0
 62
     0
 10
1826.615692163278
 20
-86.178861624451429
 30
0.0
 11
1836.0739780067599
 21
-76.720575780968943
 31
0.0
  0
LINE
  5
A73
  8
0
 62
     0
 10
1826.615692163278
 20
-81.688733563916898
 30
0.0
 11
1831.583849946225
 21
-76.720575780968943
 31
0.0
  0
LINE
  5
A74
  8
0
 62
     0
 10
1826.615692163278
 20
-77.198605503382396
 30
0.0
 11
1827.0937218856909
 21
-76.720575780968716
 31
0.0
  0
LINE
  5
A75
  8
0
 62
     0
 10
1840.68256934088
 20
-22.720575780968829
 30
0.0
 11
1844.615692163278
 21
-18.78745295857118
 31
0.0
  0
LINE
  5
A76
  8
0
 62
     0
 10
1836.192441280346
 20
-22.720575780968709
 30
0.0
 11
1844.615692163278
 21
-14.29732489803666
 31
0.0
  0
LINE
  5
A77
  8
0
 62
     0
 10
1831.702313219811
 20
-22.72057578096895
 30
0.0
 11
1844.615692163278
 21
-9.8071968375021452
 31
0.0
  0
LINE
  5
A78
  8
0
 62
     0
 10
1827.212185159276
 20
-22.72057578096906
 30
0.0
 11
1844.615692163278
 21
-5.3170687769674032
 31
0.0
  0
LINE
  5
A79
  8
0
 62
     0
 10
1826.615692163278
 20
-18.82694071643289
 30
0.0
 11
1844.615692163278
 21
-0.8269407164328868
 31
0.0
  0
LINE
  5
A7A
  8
0
 62
     0
 10
1826.615692163278
 20
-14.33681265589825
 30
0.0
 11
1844.615692163278
 21
3.6631873441017428
 31
0.0
  0
LINE
  5
A7B
  8
0
 62
     0
 10
1826.615692163278
 20
-9.8466845953637403
 30
0.0
 11
1844.615692163278
 21
8.1533154046362597
 31
0.0
  0
LINE
  5
A7C
  8
0
 62
     0
 10
1826.615692163278
 20
-5.356556534829223
 30
0.0
 11
1844.615692163278
 21
12.643443465170771
 31
0.0
  0
LINE
  5
A7D
  8
0
 62
     0
 10
1826.615692163278
 20
-0.8664284742947074
 30
0.0
 11
1844.615692163278
 21
17.133571525705399
 31
0.0
  0
LINE
  5
A7E
  8
0
 62
     0
 10
1826.615692163278
 20
3.6236995862400359
 30
0.0
 11
1844.615692163278
 21
21.62369958624004
 31
0.0
  0
LINE
  5
A7F
  8
0
 62
     0
 10
1826.615692163278
 20
8.1138276467745527
 30
0.0
 11
1844.615692163278
 21
26.113827646774549
 31
0.0
  0
LINE
  5
A80
  8
0
 62
     0
 10
1826.615692163278
 20
12.603955707309069
 30
0.0
 11
1844.615692163278
 21
30.603955707309069
 31
0.0
  0
LINE
  5
A81
  8
0
 62
     0
 10
1826.615692163278
 20
17.094083767843699
 30
0.0
 11
1844.615692163278
 21
35.094083767843927
 31
0.0
  0
LINE
  5
A82
  8
0
 62
     0
 10
1826.615692163278
 20
21.584211828378209
 30
0.0
 11
1844.615692163278
 21
39.584211828378443
 31
0.0
  0
LINE
  5
A83
  8
0
 62
     0
 10
1826.615692163278
 20
26.074339888912959
 30
0.0
 11
1844.615692163278
 21
44.074339888912839
 31
0.0
  0
LINE
  5
A84
  8
0
 62
     0
 10
1826.615692163278
 20
30.564467949447479
 30
0.0
 11
1844.615692163278
 21
48.564467949447362
 31
0.0
  0
LINE
  5
A85
  8
0
 62
     0
 10
1826.615692163278
 20
35.054596009982113
 30
0.0
 11
1844.615692163278
 21
53.05459600998222
 31
0.0
  0
LINE
  5
A86
  8
0
 62
     0
 10
1826.615692163278
 20
39.544724070516622
 30
0.0
 11
1844.3503923117919
 21
57.279424219031277
 31
0.0
  0
LINE
  5
A87
  8
0
 62
     0
 10
1826.615692163278
 20
44.034852131051132
 30
0.0
 11
1840.6156921632789
 21
58.03485213105251
 31
0.0
  0
LINE
  5
A88
  8
0
 62
     0
 10
1826.615692163278
 20
48.524980191585769
 30
0.0
 11
1840.6156921632789
 21
62.524980191587133
 31
0.0
  0
LINE
  5
A89
  8
0
 62
     0
 10
1826.615692163278
 20
53.015108252120399
 30
0.0
 11
1840.6156921632789
 21
67.015108252121763
 31
0.0
  0
LINE
  5
A8A
  8
0
 62
     0
 10
1826.615692163278
 20
57.505236312654908
 30
0.0
 11
1840.6156921632789
 21
71.505236312656265
 31
0.0
  0
LINE
  5
A8B
  8
0
 62
     0
 10
1826.615692163278
 20
61.995364373189432
 30
0.0
 11
1840.6156921632789
 21
75.995364373190796
 31
0.0
  0
LINE
  5
A8C
  8
0
 62
     0
 10
1826.615692163278
 20
66.485492433723948
 30
0.0
 11
1837.409623948585
 21
77.279424219031057
 31
0.0
  0
LINE
  5
A8D
  8
0
 62
     0
 10
1826.615692163278
 20
70.975620494258692
 30
0.0
 11
1832.9194958880501
 21
77.279424219031171
 31
0.0
  0
LINE
  5
A8E
  8
0
 62
     0
 10
1826.615692163278
 20
75.465748554793194
 30
0.0
 11
1828.429367827516
 21
77.279424219031284
 31
0.0
  0
LINE
  5
A8F
  8
0
 62
     0
 10
1412.3736051034591
 20
-136.72057578096911
 30
0.0
 11
1412.6156921632769
 21
-136.47848872115159
 31
0.0
  0
LINE
  5
A90
  8
0
 62
     0
 10
1407.8834770429251
 20
-136.72057578096911
 30
0.0
 11
1412.6156921632769
 21
-131.98836066061699
 31
0.0
  0
LINE
  5
A91
  8
0
 62
     0
 10
1403.3933489823901
 20
-136.720575780969
 30
0.0
 11
1412.6156921632769
 21
-127.4982326000825
 31
0.0
  0
LINE
  5
A92
  8
0
 62
     0
 10
1836.903220921856
 20
301.279424219031
 30
0.0
 11
1840.615692163278
 21
304.99189546045289
 31
0.0
  0
LINE
  5
A93
  8
0
 62
     0
 10
1398.903220921856
 20
-136.720575780969
 30
0.0
 11
1412.6156921632769
 21
-123.0081045395479
 31
0.0
  0
LINE
  5
A94
  8
0
 62
     0
 10
1832.413092861321
 20
301.27942421903077
 30
0.0
 11
1840.615692163278
 21
309.48202352098798
 31
0.0
  0
LINE
  5
A95
  8
0
 62
     0
 10
1394.615692163278
 20
-136.51797647901219
 30
0.0
 11
1412.6156921632769
 21
-118.5179764790133
 31
0.0
  0
LINE
  5
A96
  8
0
 62
     0
 10
1827.922964800787
 20
301.27942421903077
 30
0.0
 11
1840.6156921632789
 21
313.97215158152301
 31
0.0
  0
LINE
  5
A97
  8
0
 62
     0
 10
1394.615692163278
 20
-132.0278484184777
 30
0.0
 11
1412.6156921632769
 21
-114.0278484184788
 31
0.0
  0
LINE
  5
A98
  8
0
 62
     0
 10
1826.615692163278
 20
304.46227964205713
 30
0.0
 11
1840.6156921632789
 21
318.46227964205769
 31
0.0
  0
LINE
  5
A99
  8
0
 62
     0
 10
1843.432836740252
 20
321.27942421903111
 30
0.0
 11
1844.615692163276
 21
322.46227964205463
 31
0.0
  0
LINE
  5
A9A
  8
0
 62
     0
 10
1394.615692163278
 20
-127.5377203579431
 30
0.0
 11
1412.6156921632769
 21
-109.5377203579442
 31
0.0
  0
LINE
  5
A9B
  8
0
 62
     0
 10
1826.615692163278
 20
308.95240770259147
 30
0.0
 11
1844.615692163276
 21
326.9524077025892
 31
0.0
  0
LINE
  5
A9C
  8
0
 62
     0
 10
1394.615692163278
 20
-123.0475922974085
 30
0.0
 11
1412.6156921632769
 21
-105.04759229740949
 31
0.0
  0
LINE
  5
A9D
  8
0
 62
     0
 10
1826.615692163278
 20
313.44253576312622
 30
0.0
 11
1844.615692163276
 21
331.44253576312371
 31
0.0
  0
LINE
  5
A9E
  8
0
 62
     0
 10
1394.615692163278
 20
-118.557464236874
 30
0.0
 11
1412.6156921632769
 21
-100.55746423687501
 31
0.0
  0
LINE
  5
A9F
  8
0
 62
     0
 10
1826.615692163278
 20
317.93266382366068
 30
0.0
 11
1844.615692163276
 21
335.93266382365817
 31
0.0
  0
LINE
  5
AA0
  8
0
 62
     0
 10
1394.615692163278
 20
-114.0673361763393
 30
0.0
 11
1412.6156921632769
 21
-96.067336176340405
 31
0.0
  0
LINE
  5
AA1
  8
0
 62
     0
 10
1826.615692163278
 20
322.42279188419531
 30
0.0
 11
1844.615692163276
 21
340.42279188419297
 31
0.0
  0
LINE
  5
AA2
  8
0
 62
     0
 10
1394.615692163278
 20
-109.57720811580479
 30
0.0
 11
1412.6156921632769
 21
-91.577208115805874
 31
0.0
  0
LINE
  5
AA3
  8
0
 62
     0
 10
1826.615692163278
 20
326.91291994472988
 30
0.0
 11
1844.615692163276
 21
344.91291994472761
 31
0.0
  0
LINE
  5
AA4
  8
0
 62
     0
 10
1394.615692163278
 20
-105.08708005527021
 30
0.0
 11
1412.6156921632769
 21
-87.087080055271258
 31
0.0
  0
LINE
  5
AA5
  8
0
 62
     0
 10
1826.615692163278
 20
331.4030480052644
 30
0.0
 11
1844.615692163276
 21
349.40304800526212
 31
0.0
  0
LINE
  5
AA6
  8
0
 62
     0
 10
1394.615692163278
 20
-100.5969519947357
 30
0.0
 11
1412.6156921632769
 21
-82.596951994736727
 31
0.0
  0
LINE
  5
AA7
  8
0
 62
     0
 10
1826.615692163278
 20
335.89317606579891
 30
0.0
 11
1844.615692163276
 21
353.89317606579669
 31
0.0
  0
LINE
  5
AA8
  8
0
 62
     0
 10
1394.615692163278
 20
-96.106823934201202
 30
0.0
 11
1412.6156921632769
 21
-78.106823934202225
 31
0.0
  0
LINE
  5
AA9
  8
0
 62
     0
 10
1826.615692163278
 20
340.38330412633343
 30
0.0
 11
1844.615692163276
 21
358.38330412633121
 31
0.0
  0
LINE
  5
AAA
  8
0
 62
     0
 10
1394.6156921632769
 20
-91.616695873666586
 30
0.0
 11
1412.6156921632769
 21
-73.616695873667595
 31
0.0
  0
LINE
  5
AAB
  8
0
 62
     0
 10
1826.615692163278
 20
344.87343218686811
 30
0.0
 11
1844.615692163276
 21
362.87343218686578
 31
0.0
  0
LINE
  5
AAC
  8
0
 62
     0
 10
1394.6156921632769
 20
-87.126567813131942
 30
0.0
 11
1412.6156921632769
 21
-69.126567813132965
 31
0.0
  0
LINE
  5
AAD
  8
0
 62
     0
 10
1826.615692163278
 20
349.36356024740257
 30
0.0
 11
1844.615692163276
 21
367.3635602474003
 31
0.0
  0
LINE
  5
AAE
  8
0
 62
     0
 10
1394.6156921632769
 20
-82.636439752597425
 30
0.0
 11
1412.6156921632769
 21
-64.636439752598449
 31
0.0
  0
LINE
  5
AAF
  8
0
 62
     0
 10
1826.615692163278
 20
353.85368830793709
 30
0.0
 11
1844.615692163276
 21
371.85368830793482
 31
0.0
  0
LINE
  5
AB0
  8
0
 62
     0
 10
1394.6156921632769
 20
-78.146311692063023
 30
0.0
 11
1412.6156921632769
 21
-60.146311692063811
 31
0.0
  0
LINE
  5
AB1
  8
0
 62
     0
 10
1826.615692163278
 20
358.34381636847161
 30
0.0
 11
1844.615692163276
 21
376.34381636846928
 31
0.0
  0
LINE
  5
AB2
  8
0
 62
     0
 10
1394.6156921632769
 20
-73.656183631528506
 30
0.0
 11
1412.6156921632769
 21
-55.656183631529302
 31
0.0
  0
LINE
  5
AB3
  8
0
 62
     0
 10
1826.615692163278
 20
362.83394442900618
 30
0.0
 11
1844.615692163276
 21
380.83394442900391
 31
0.0
  0
LINE
  5
AB4
  8
0
 62
     0
 10
1394.6156921632769
 20
-69.166055570993876
 30
0.0
 11
1412.6156921632769
 21
-51.166055570994672
 31
0.0
  0
LINE
  5
AB5
  8
0
 62
     0
 10
1826.615692163278
 20
367.32407248954098
 30
0.0
 11
1844.615692163276
 21
385.32407248953848
 31
0.0
  0
LINE
  5
AB6
  8
0
 62
     0
 10
1394.6156921632769
 20
-64.67592751045936
 30
0.0
 11
1412.6156921632769
 21
-46.675927510460149
 31
0.0
  0
LINE
  5
AB7
  8
0
 62
     0
 10
1826.615692163278
 20
371.81420055007533
 30
0.0
 11
1844.615692163276
 21
389.814200550073
 31
0.0
  0
LINE
  5
AB8
  8
0
 62
     0
 10
1394.6156921632769
 20
-60.185799449924851
 30
0.0
 11
1412.6156921632769
 21
-42.185799449925639
 31
0.0
  0
LINE
  5
AB9
  8
0
 62
     0
 10
1826.615692163278
 20
376.30432861061001
 30
0.0
 11
1844.6156921632751
 21
394.30432861060751
 31
0.0
  0
LINE
  5
ABA
  8
0
 62
     0
 10
1394.6156921632769
 20
-55.69567138939032
 30
0.0
 11
1412.6156921632769
 21
-37.695671389391009
 31
0.0
  0
LINE
  5
ABB
  8
0
 62
     0
 10
1826.615692163278
 20
380.7944566711447
 30
0.0
 11
1844.615692163276
 21
398.79445667114243
 31
0.0
  0
LINE
  5
ABC
  8
0
 62
     0
 10
1394.6156921632769
 20
-51.205543328855583
 30
0.0
 11
1412.6156921632769
 21
-33.205543328856379
 31
0.0
  0
LINE
  5
ABD
  8
0
 62
     0
 10
1826.615692163278
 20
385.28458473167922
 30
0.0
 11
1844.615692163276
 21
403.28458473167677
 31
0.0
  0
LINE
  5
ABE
  8
0
 62
     0
 10
1394.6156921632769
 20
-46.715415268321067
 30
0.0
 11
1412.6156921632769
 21
-28.715415268321859
 31
0.0
  0
LINE
  5
ABF
  8
0
 62
     0
 10
1826.615692163278
 20
389.77471279221368
 30
0.0
 11
1844.615692163276
 21
407.7747127922114
 31
0.0
  0
LINE
  5
AC0
  8
0
 62
     0
 10
1394.6156921632769
 20
-42.22528720778655
 30
0.0
 11
1412.6156921632769
 21
-24.22528720778724
 31
0.0
  0
LINE
  5
AC1
  8
0
 62
     0
 10
1826.615692163278
 20
394.26484085274831
 30
0.0
 11
1844.615692163276
 21
412.26484085274598
 31
0.0
  0
LINE
  5
AC2
  8
0
 62
     0
 10
1394.6156921632769
 20
-37.73515914725192
 30
0.0
 11
1412.6156921632769
 21
-19.735159147252599
 31
0.0
  0
LINE
  5
AC3
  8
0
 62
     0
 10
1826.615692163278
 20
398.75496891328282
 30
0.0
 11
1844.615692163276
 21
416.75496891328049
 31
0.0
  0
LINE
  5
AC4
  8
0
 62
     0
 10
1394.6156921632769
 20
-33.245031086717397
 30
0.0
 11
1412.6156921632769
 21
-15.245031086718081
 31
0.0
  0
LINE
  5
AC5
  8
0
 62
     0
 10
1826.615692163278
 20
403.24509697381728
 30
0.0
 11
1844.6156921632751
 21
421.24509697381478
 31
0.0
  0
LINE
  5
AC6
  8
0
 62
     0
 10
1394.6156921632769
 20
-28.754903026182781
 30
0.0
 11
1412.6156921632769
 21
-10.75490302618357
 31
0.0
  0
LINE
  5
AC7
  8
0
 62
     0
 10
1826.615692163278
 20
407.73522503435208
 30
0.0
 11
1844.6156921632751
 21
425.73522503434958
 31
0.0
  0
LINE
  5
AC8
  8
0
 62
     0
 10
1394.6156921632769
 20
-24.264774965648261
 30
0.0
 11
1412.6156921632769
 21
-6.2647749656490532
 31
0.0
  0
LINE
  5
AC9
  8
0
 62
     0
 10
1826.615692163278
 20
412.22535309488649
 30
0.0
 11
1844.6156921632751
 21
430.22535309488393
 31
0.0
  0
LINE
  5
ACA
  8
0
 62
     0
 10
1394.6156921632769
 20
-19.774646905113631
 30
0.0
 11
1412.6156921632769
 21
-1.774646905114309
 31
0.0
  0
LINE
  5
ACB
  8
0
 62
     0
 10
1826.615692163278
 20
416.71548115542117
 30
0.0
 11
1844.6156921632751
 21
434.71548115541867
 31
0.0
  0
LINE
  5
ACC
  8
0
 62
     0
 10
1394.6156921632769
 20
-15.284518844579109
 30
0.0
 11
1412.6156921632769
 21
2.7154811554202061
 31
0.0
  0
LINE
  5
ACD
  8
0
 62
     0
 10
1826.615692163278
 20
421.20560921595569
 30
0.0
 11
1844.6156921632751
 21
439.20560921595319
 31
0.0
  0
LINE
  5
ACE
  8
0
 62
     0
 10
1394.6156921632769
 20
-10.794390784044589
 30
0.0
 11
1412.6156921632769
 21
7.2056092159547234
 31
0.0
  0
LINE
  5
ACF
  8
0
 62
     0
 10
1826.615692163278
 20
425.69573727649021
 30
0.0
 11
1844.6156921632751
 21
443.69573727648782
 31
0.0
  0
LINE
  5
AD0
  8
0
 62
     0
 10
1394.6156921632769
 20
-6.3042627235100781
 30
0.0
 11
1412.6156921632769
 21
11.69573727648935
 31
0.0
  0
LINE
  5
AD1
  8
0
 62
     0
 10
1826.615692163278
 20
430.18586533702478
 30
0.0
 11
1844.6156921632751
 21
448.18586533702228
 31
0.0
  0
LINE
  5
AD2
  8
0
 62
     0
 10
1394.6156921632769
 20
-1.814134662975448
 30
0.0
 11
1412.6156921632769
 21
16.18586533702398
 31
0.0
  0
LINE
  5
AD3
  8
0
 62
     0
 10
1826.615692163278
 20
434.67599339755941
 30
0.0
 11
1844.6156921632751
 21
452.67599339755691
 31
0.0
  0
LINE
  5
AD4
  8
0
 62
     0
 10
1394.6156921632769
 20
2.675993397559068
 30
0.0
 11
1412.6156921632769
 21
20.6759933975585
 31
0.0
  0
LINE
  5
AD5
  8
0
 62
     0
 10
1826.615692163278
 20
439.16612145809393
 30
0.0
 11
1844.6156921632751
 21
457.1661214580916
 31
0.0
  0
LINE
  5
AD6
  8
0
 62
     0
 10
1394.6156921632769
 20
7.1661214580935839
 30
0.0
 11
1412.6156921632769
 21
25.16612145809302
 31
0.0
  0
LINE
  5
AD7
  8
0
 62
     0
 10
1826.615692163278
 20
443.65624951862839
 30
0.0
 11
1844.6156921632751
 21
461.65624951862611
 31
0.0
  0
LINE
  5
AD8
  8
0
 62
     0
 10
1394.6156921632769
 20
11.65624951862821
 30
0.0
 11
1412.6156921632769
 21
29.656249518627529
 31
0.0
  0
LINE
  5
AD9
  8
0
 62
     0
 10
1826.615692163278
 20
448.14637757916302
 30
0.0
 11
1844.6156921632751
 21
466.1463775791608
 31
0.0
  0
LINE
  5
ADA
  8
0
 62
     0
 10
1394.6156921632769
 20
16.146377579162841
 30
0.0
 11
1412.6156921632769
 21
34.146377579162277
 31
0.0
  0
LINE
  5
ADB
  8
0
 62
     0
 10
1826.615692163278
 20
452.63650563969759
 30
0.0
 11
1844.6156921632751
 21
470.63650563969532
 31
0.0
  0
LINE
  5
ADC
  8
0
 62
     0
 10
1394.6156921632769
 20
20.636505639697361
 30
0.0
 11
1412.6156921632769
 21
38.6365056396968
 31
0.0
  0
LINE
  5
ADD
  8
0
 62
     0
 10
1826.615692163278
 20
457.12663370023199
 30
0.0
 11
1844.6156921632751
 21
475.12663370022977
 31
0.0
  0
LINE
  5
ADE
  8
0
 62
     0
 10
1394.6156921632769
 20
25.126633700231991
 30
0.0
 11
1412.6156921632769
 21
43.126633700231302
 31
0.0
  0
LINE
  5
ADF
  8
0
 62
     0
 10
1826.615692163278
 20
461.61676176076662
 30
0.0
 11
1844.6156921632751
 21
479.61676176076429
 31
0.0
  0
LINE
  5
AE0
  8
0
 62
     0
 10
1394.6156921632769
 20
29.616761760766511
 30
0.0
 11
1412.6156921632769
 21
47.616761760765833
 31
0.0
  0
LINE
  5
AE1
  8
0
 62
     0
 10
1826.615692163278
 20
466.10688982130119
 30
0.0
 11
1844.6156921632751
 21
484.10688982129898
 31
0.0
  0
LINE
  5
AE2
  8
0
 62
     0
 10
1394.6156921632769
 20
34.106889821301138
 30
0.0
 11
1412.6156921632769
 21
52.10688982130057
 31
0.0
  0
LINE
  5
AE3
  8
0
 62
     0
 10
1826.615692163278
 20
470.59701788183582
 30
0.0
 11
1844.6156921632751
 21
488.59701788183321
 31
0.0
  0
LINE
  5
AE4
  8
0
 62
     0
 10
1394.6156921632769
 20
38.597017881835541
 30
0.0
 11
1412.6156921632769
 21
56.597017881835079
 31
0.0
  0
LINE
  5
AE5
  8
0
 62
     0
 10
1826.615692163278
 20
475.08714594237023
 30
0.0
 11
1844.6156921632751
 21
493.08714594236801
 31
0.0
  0
LINE
  5
AE6
  8
0
 62
     0
 10
1394.6156921632769
 20
43.08714594237005
 30
0.0
 11
1412.6156921632769
 21
61.087145942369602
 31
0.0
  0
LINE
  5
AE7
  8
0
 62
     0
 10
1826.615692163278
 20
479.57727400290491
 30
0.0
 11
1844.6156921632751
 21
497.57727400290253
 31
0.0
  0
LINE
  5
AE8
  8
0
 62
     0
 10
1394.6156921632769
 20
47.577274002904687
 30
0.0
 11
1412.6156921632769
 21
65.577274002904119
 31
0.0
  0
LINE
  5
AE9
  8
0
 62
     0
 10
1826.615692163278
 20
484.0674020634396
 30
0.0
 11
1844.6156921632751
 21
502.06740206343721
 31
0.0
  0
LINE
  5
AEA
  8
0
 62
     0
 10
1394.6156921632769
 20
52.067402063439197
 30
0.0
 11
1412.6156921632769
 21
70.067402063438749
 31
0.0
  0
LINE
  5
AEB
  8
0
 62
     0
 10
1826.615692163278
 20
488.55753012397412
 30
0.0
 11
1844.6156921632751
 21
506.55753012397162
 31
0.0
  0
LINE
  5
AEC
  8
0
 62
     0
 10
1394.6156921632769
 20
56.55753012397372
 30
0.0
 11
1412.6156921632769
 21
74.557530123973493
 31
0.0
  0
LINE
  5
AED
  8
0
 62
     0
 10
1826.615692163278
 20
493.04765818450869
 30
0.0
 11
1844.6156921632751
 21
511.04765818450619
 31
0.0
  0
LINE
  5
AEE
  8
0
 62
     0
 10
1394.6156921632769
 20
61.047658184508229
 30
0.0
 11
1412.6156921632769
 21
79.047658184507895
 31
0.0
  0
LINE
  5
AEF
  8
0
 62
     0
 10
1826.615692163278
 20
497.53778624504332
 30
0.0
 11
1844.6156921632751
 21
515.53778624504082
 31
0.0
  0
LINE
  5
AF0
  8
0
 62
     0
 10
1394.6156921632769
 20
65.537786245042867
 30
0.0
 11
1412.6156921632769
 21
83.537786245042525
 31
0.0
  0
LINE
  5
AF1
  8
0
 62
     0
 10
1826.615692163278
 20
502.02791430557778
 30
0.0
 11
1844.6156921632751
 21
520.02791430557534
 31
0.0
  0
LINE
  5
AF2
  8
0
 62
     0
 10
1394.6156921632769
 20
70.027914305577383
 30
0.0
 11
1412.6156921632769
 21
88.027914305577042
 31
0.0
  0
LINE
  5
AF3
  8
0
 62
     0
 10
1826.615692163278
 20
506.5180423661123
 30
0.0
 11
1844.6156921632751
 21
524.51804236610985
 31
0.0
  0
LINE
  5
AF4
  8
0
 62
     0
 10
1394.6156921632769
 20
74.518042366112127
 30
0.0
 11
1412.6156921632769
 21
92.518042366111544
 31
0.0
  0
LINE
  5
AF5
  8
0
 62
     0
 10
1826.615692163278
 20
511.0081704266471
 30
0.0
 11
1844.6156921632751
 21
529.00817042664437
 31
0.0
  0
LINE
  5
AF6
  8
0
 62
     0
 10
1394.6156921632769
 20
79.008170426646643
 30
0.0
 11
1412.6156921632769
 21
97.008170426646316
 31
0.0
  0
LINE
  5
AF7
  8
0
 62
     0
 10
1826.615692163278
 20
515.49829848718173
 30
0.0
 11
1844.6156921632751
 21
533.498298487179
 31
0.0
  0
LINE
  5
AF8
  8
0
 62
     0
 10
1394.6156921632769
 20
83.498298487181273
 30
0.0
 11
1412.6156921632769
 21
101.4982984871809
 31
0.0
  0
LINE
  5
AF9
  8
0
 62
     0
 10
1826.615692163278
 20
519.98842654771624
 30
0.0
 11
1844.6156921632751
 21
537.98842654771352
 31
0.0
  0
LINE
  5
AFA
  8
0
 62
     0
 10
1394.6156921632769
 20
87.98842654771579
 30
0.0
 11
1412.6156921632769
 21
105.98842654771541
 31
0.0
  0
LINE
  5
AFB
  8
0
 62
     0
 10
1826.615692163278
 20
524.47855460825065
 30
0.0
 11
1844.6156921632751
 21
542.47855460824803
 31
0.0
  0
LINE
  5
AFC
  8
0
 62
     0
 10
1394.6156921632769
 20
92.478554608250306
 30
0.0
 11
1412.6156921632769
 21
110.47855460824989
 31
0.0
  0
LINE
  5
AFD
  8
0
 62
     0
 10
1826.615692163278
 20
528.96868266878516
 30
0.0
 11
1844.6156921632751
 21
546.96868266878255
 31
0.0
  0
LINE
  5
AFE
  8
0
 62
     0
 10
1394.6156921632769
 20
96.968682668784822
 30
0.0
 11
1412.6156921632769
 21
114.9686826687845
 31
0.0
  0
LINE
  5
AFF
  8
0
 62
     0
 10
1826.615692163278
 20
533.45881072931991
 30
0.0
 11
1844.6156921632751
 21
551.45881072931707
 31
0.0
  0
LINE
  5
B00
  8
0
 62
     0
 10
1394.6156921632769
 20
101.4588107293194
 30
0.0
 11
1412.6156921632769
 21
119.4588107293192
 31
0.0
  0
LINE
  5
B01
  8
0
 62
     0
 10
1826.615692163278
 20
537.94893878985431
 30
0.0
 11
1844.6156921632751
 21
555.94893878985192
 31
0.0
  0
LINE
  5
B02
  8
0
 62
     0
 10
1394.6156921632769
 20
105.948938789854
 30
0.0
 11
1412.6156921632769
 21
123.9489387898537
 31
0.0
  0
LINE
  5
B03
  8
0
 62
     0
 10
1826.615692163278
 20
542.43906685038894
 30
0.0
 11
1844.6156921632751
 21
560.43906685038621
 31
0.0
  0
LINE
  5
B04
  8
0
 62
     0
 10
1394.6156921632769
 20
110.4390668503886
 30
0.0
 11
1412.6156921632769
 21
128.4390668503882
 31
0.0
  0
LINE
  5
B05
  8
0
 62
     0
 10
1826.6156921632769
 20
546.92919491092346
 30
0.0
 11
1844.6156921632751
 21
564.92919491092096
 31
0.0
  0
LINE
  5
B06
  8
0
 62
     0
 10
1394.6156921632769
 20
114.9291949109231
 30
0.0
 11
1412.6156921632769
 21
132.92919491092289
 31
0.0
  0
LINE
  5
B07
  8
0
 62
     0
 10
1826.615692163278
 20
551.41932297145809
 30
0.0
 11
1844.6156921632751
 21
569.41932297145524
 31
0.0
  0
LINE
  5
B08
  8
0
 62
     0
 10
1394.6156921632769
 20
119.4193229714577
 30
0.0
 11
1412.6156921632769
 21
137.41932297145749
 31
0.0
  0
LINE
  5
B09
  8
0
 62
     0
 10
1826.615692163278
 20
555.90945103199249
 30
0.0
 11
1844.6156921632751
 21
573.90945103198999
 31
0.0
  0
LINE
  5
B0A
  8
0
 62
     0
 10
1394.6156921632769
 20
123.90945103199221
 30
0.0
 11
1412.6156921632769
 21
141.90945103199201
 31
0.0
  0
LINE
  5
B0B
  8
0
 62
     0
 10
1826.615692163278
 20
560.39957909252712
 30
0.0
 11
1844.6156921632751
 21
578.39957909252462
 31
0.0
  0
LINE
  5
B0C
  8
0
 62
     0
 10
1394.6156921632769
 20
128.39957909252689
 30
0.0
 11
1412.6156921632769
 21
146.39957909252649
 31
0.0
  0
LINE
  5
B0D
  8
0
 62
     0
 10
1826.615692163278
 20
564.88970715306164
 30
0.0
 11
1844.6156921632751
 21
582.88970715305913
 31
0.0
  0
LINE
  5
B0E
  8
0
 62
     0
 10
1394.6156921632769
 20
132.88970715306141
 30
0.0
 11
1412.6156921632769
 21
150.88970715306129
 31
0.0
  0
LINE
  5
B0F
  8
0
 62
     0
 10
1826.615692163278
 20
569.37983521359627
 30
0.0
 11
1844.6156921632751
 21
587.37983521359376
 31
0.0
  0
LINE
  5
B10
  8
0
 62
     0
 10
1394.6156921632769
 20
137.37983521359601
 30
0.0
 11
1412.6156921632769
 21
155.3798352135959
 31
0.0
  0
LINE
  5
B11
  8
0
 62
     0
 10
1826.615692163278
 20
573.86996327413067
 30
0.0
 11
1844.6156921632751
 21
591.86996327412817
 31
0.0
  0
LINE
  5
B12
  8
0
 62
     0
 10
1394.6156921632769
 20
141.8699632741305
 30
0.0
 11
1412.6156921632769
 21
159.86996327413041
 31
0.0
  0
LINE
  5
B13
  8
0
 62
     0
 10
1826.615692163278
 20
578.3600913346653
 30
0.0
 11
1844.6156921632751
 21
596.3600913346628
 31
0.0
  0
LINE
  5
B14
  8
0
 62
     0
 10
1394.6156921632769
 20
146.3600913346651
 30
0.0
 11
1412.6156921632769
 21
164.3600913346649
 31
0.0
  0
LINE
  5
B15
  8
0
 62
     0
 10
1826.615692163278
 20
582.85021939520016
 30
0.0
 11
1844.6156921632751
 21
600.85021939519743
 31
0.0
  0
LINE
  5
B16
  8
0
 62
     0
 10
1394.6156921632769
 20
150.8502193951995
 30
0.0
 11
1412.6156921632769
 21
168.8502193951997
 31
0.0
  0
LINE
  5
B17
  8
0
 62
     0
 10
1826.615692163278
 20
587.34034745573456
 30
0.0
 11
1844.6156921632751
 21
605.34034745573206
 31
0.0
  0
LINE
  5
B18
  8
0
 62
     0
 10
1394.6156921632769
 20
155.34034745573419
 30
0.0
 11
1412.6156921632769
 21
173.34034745573419
 31
0.0
  0
LINE
  5
B19
  8
0
 62
     0
 10
1826.615692163278
 20
591.83047551626919
 30
0.0
 11
1844.6156921632751
 21
609.83047551626635
 31
0.0
  0
LINE
  5
B1A
  8
0
 62
     0
 10
1394.6156921632769
 20
159.83047551626871
 30
0.0
 11
1412.6156921632769
 21
177.83047551626871
 31
0.0
  0
LINE
  5
B1B
  8
0
 62
     0
 10
1826.615692163278
 20
596.32060357680359
 30
0.0
 11
1844.6156921632751
 21
614.32060357680098
 31
0.0
  0
LINE
  5
B1C
  8
0
 62
     0
 10
1394.6156921632769
 20
164.32060357680319
 30
0.0
 11
1412.6156921632769
 21
182.32060357680339
 31
0.0
  0
LINE
  5
B1D
  8
0
 62
     0
 10
1826.615692163278
 20
600.81073163733834
 30
0.0
 11
1844.6156921632751
 21
618.81073163733561
 31
0.0
  0
LINE
  5
B1E
  8
0
 62
     0
 10
1394.6156921632769
 20
168.81073163733791
 30
0.0
 11
1412.6156921632769
 21
186.81073163733811
 31
0.0
  0
LINE
  5
B1F
  8
0
 62
     0
 10
1826.615692163278
 20
605.30085969787297
 30
0.0
 11
1844.6156921632751
 21
623.30085969787012
 31
0.0
  0
LINE
  5
B20
  8
0
 62
     0
 10
1394.6156921632769
 20
173.3008596978724
 30
0.0
 11
1412.6156921632769
 21
191.30085969787251
 31
0.0
  0
LINE
  5
B21
  8
0
 62
     0
 10
1826.615692163278
 20
609.7909877584076
 30
0.0
 11
1844.6156921632751
 21
627.79098775840464
 31
0.0
  0
LINE
  5
B22
  8
0
 62
     0
 10
1394.6156921632769
 20
177.79098775840711
 30
0.0
 11
1412.6156921632769
 21
195.790987758407
 31
0.0
  0
LINE
  5
B23
  8
0
 62
     0
 10
1826.615692163278
 20
614.28111581894211
 30
0.0
 11
1844.6156921632751
 21
632.28111581893916
 31
0.0
  0
LINE
  5
B24
  8
0
 62
     0
 10
1394.6156921632769
 20
182.2811158189416
 30
0.0
 11
1412.6156921632769
 21
200.2811158189418
 31
0.0
  0
LINE
  5
B25
  8
0
 62
     0
 10
1826.6156921632769
 20
618.77124387947674
 30
0.0
 11
1844.6156921632739
 21
636.77124387947379
 31
0.0
  0
LINE
  5
B26
  8
0
 62
     0
 10
1394.6156921632769
 20
186.77124387947629
 30
0.0
 11
1412.6156921632769
 21
204.7712438794764
 31
0.0
  0
LINE
  5
B27
  8
0
 62
     0
 10
1826.6156921632769
 20
623.26137194001114
 30
0.0
 11
1844.6156921632739
 21
641.26137194000819
 31
0.0
  0
LINE
  5
B28
  8
0
 62
     0
 10
1394.6156921632769
 20
191.2613719400108
 30
0.0
 11
1412.6156921632769
 21
209.26137194001089
 31
0.0
  0
LINE
  5
B29
  8
0
 62
     0
 10
1826.615692163278
 20
627.75150000054578
 30
0.0
 11
1844.6156921632739
 21
645.75150000054282
 31
0.0
  0
LINE
  5
B2A
  8
0
 62
     0
 10
1394.6156921632769
 20
195.75150000054529
 30
0.0
 11
1412.6156921632769
 21
213.75150000054541
 31
0.0
  0
LINE
  5
B2B
  8
0
 62
     0
 10
1826.615692163278
 20
632.24162806108018
 30
0.0
 11
1844.6156921632739
 21
650.24162806107734
 31
0.0
  0
LINE
  5
B2C
  8
0
 62
     0
 10
1394.6156921632769
 20
200.24162806108001
 30
0.0
 11
1412.6156921632769
 21
218.24162806108009
 31
0.0
  0
LINE
  5
B2D
  8
0
 62
     0
 10
1826.615692163278
 20
636.73175612161492
 30
0.0
 11
1844.6156921632739
 21
654.73175612161185
 31
0.0
  0
LINE
  5
B2E
  8
0
 62
     0
 10
1394.6156921632769
 20
204.73175612161461
 30
0.0
 11
1412.6156921632769
 21
222.73175612161469
 31
0.0
  0
LINE
  5
B2F
  8
0
 62
     0
 10
1826.615692163278
 20
641.22188418214944
 30
0.0
 11
1844.6156921632739
 21
659.22188418214637
 31
0.0
  0
LINE
  5
B30
  8
0
 62
     0
 10
1394.6156921632769
 20
209.2218841821491
 30
0.0
 11
1412.6156921632769
 21
227.22188418214921
 31
0.0
  0
LINE
  5
B31
  8
0
 62
     0
 10
1826.615692163278
 20
645.71201224268395
 30
0.0
 11
1844.6156921632739
 21
663.712012242681
 31
0.0
  0
LINE
  5
B32
  8
0
 62
     0
 10
1394.6156921632769
 20
213.71201224268361
 30
0.0
 11
1412.6156921632769
 21
231.7120122426837
 31
0.0
  0
LINE
  5
B33
  8
0
 62
     0
 10
1826.615692163278
 20
650.2021403032187
 30
0.0
 11
1844.6156921632739
 21
668.2021403032154
 31
0.0
  0
LINE
  5
B34
  8
0
 62
     0
 10
1394.6156921632769
 20
218.2021403032181
 30
0.0
 11
1412.6156921632769
 21
236.2021403032185
 31
0.0
  0
LINE
  5
B35
  8
0
 62
     0
 10
1826.615692163278
 20
654.69226836375333
 30
0.0
 11
1844.6156921632739
 21
672.69226836375037
 31
0.0
  0
LINE
  5
B36
  8
0
 62
     0
 10
1394.6156921632769
 20
222.6922683637529
 30
0.0
 11
1412.6156921632769
 21
240.6922683637531
 31
0.0
  0
LINE
  5
B37
  8
0
 62
     0
 10
1826.615692163278
 20
659.18239642428784
 30
0.0
 11
1844.6156921632739
 21
677.18239642428455
 31
0.0
  0
LINE
  5
B38
  8
0
 62
     0
 10
1394.6156921632769
 20
227.18239642428739
 30
0.0
 11
1412.6156921632769
 21
245.18239642428759
 31
0.0
  0
LINE
  5
B39
  8
0
 62
     0
 10
1826.615692163278
 20
663.67252448482259
 30
0.0
 11
1844.6156921632739
 21
681.67252448481941
 31
0.0
  0
LINE
  5
B3A
  8
0
 62
     0
 10
1394.6156921632769
 20
231.67252448482191
 30
0.0
 11
1412.6156921632769
 21
249.67252448482199
 31
0.0
  0
LINE
  5
B3B
  8
0
 62
     0
 10
1826.615692163278
 20
668.16265254535699
 30
0.0
 11
1844.6156921632739
 21
686.16265254535358
 31
0.0
  0
LINE
  5
B3C
  8
0
 62
     0
 10
1394.6156921632769
 20
236.16265254535639
 30
0.0
 11
1412.6156921632769
 21
254.16265254535679
 31
0.0
  0
LINE
  5
B3D
  8
0
 62
     0
 10
1826.615692163278
 20
672.65278060589173
 30
0.0
 11
1844.6156921632739
 21
690.65278060588832
 31
0.0
  0
LINE
  5
B3E
  8
0
 62
     0
 10
1394.6156921632769
 20
240.652780605891
 30
0.0
 11
1412.6156921632769
 21
258.65278060589139
 31
0.0
  0
LINE
  5
B3F
  8
0
 62
     0
 10
1826.615692163278
 20
677.14290866642625
 30
0.0
 11
1844.6156921632739
 21
695.14290866642284
 31
0.0
  0
LINE
  5
B40
  8
0
 62
     0
 10
1394.6156921632769
 20
245.1429086664256
 30
0.0
 11
1412.6156921632769
 21
263.14290866642591
 31
0.0
  0
LINE
  5
B41
  8
0
 62
     0
 10
1826.615692163278
 20
681.63303672696065
 30
0.0
 11
1844.6156921632739
 21
699.63303672695724
 31
0.0
  0
LINE
  5
B42
  8
0
 62
     0
 10
1394.6156921632769
 20
249.63303672696011
 30
0.0
 11
1412.6156921632769
 21
267.63303672696048
 31
0.0
  0
LINE
  5
B43
  8
0
 62
     0
 10
1826.615692163278
 20
686.12316478749528
 30
0.0
 11
1844.6156921632739
 21
704.12316478749187
 31
0.0
  0
LINE
  5
B44
  8
0
 62
     0
 10
1394.6156921632769
 20
254.12316478749489
 30
0.0
 11
1412.6156921632769
 21
272.12316478749523
 31
0.0
  0
LINE
  5
B45
  8
0
 62
     0
 10
1826.615692163278
 20
690.61329284802991
 30
0.0
 11
1844.6156921632739
 21
708.6132928480265
 31
0.0
  0
LINE
  5
B46
  8
0
 62
     0
 10
1394.6156921632769
 20
258.6132928480294
 30
0.0
 11
1412.6156921632769
 21
276.61329284802969
 31
0.0
  0
LINE
  5
B47
  8
0
 62
     0
 10
1826.615692163278
 20
695.10342090856443
 30
0.0
 11
1844.6156921632739
 21
713.10342090856102
 31
0.0
  0
LINE
  5
B48
  8
0
 62
     0
 10
1394.6156921632769
 20
263.10342090856398
 30
0.0
 11
1412.6156921632769
 21
281.1034209085642
 31
0.0
  0
LINE
  5
B49
  8
0
 62
     0
 10
1826.615692163278
 20
699.59354896909895
 30
0.0
 11
1844.6156921632739
 21
717.59354896909565
 31
0.0
  0
LINE
  5
B4A
  8
0
 62
     0
 10
1394.6156921632769
 20
267.59354896909832
 30
0.0
 11
1412.6156921632769
 21
285.593548969099
 31
0.0
  0
LINE
  5
B4B
  8
0
 62
     0
 10
1826.615692163278
 20
704.08367702963346
 30
0.0
 11
1844.6156921632739
 21
722.08367702963039
 31
0.0
  0
LINE
  5
B4C
  8
0
 62
     0
 10
1394.6156921632769
 20
272.08367702963301
 30
0.0
 11
1412.6156921632769
 21
290.08367702963358
 31
0.0
  0
LINE
  5
B4D
  8
0
 62
     0
 10
1826.615692163278
 20
708.57380509016821
 30
0.0
 11
1844.6156921632739
 21
726.5738050901648
 31
0.0
  0
LINE
  5
B4E
  8
0
 62
     0
 10
1394.6156921632769
 20
276.57380509016753
 30
0.0
 11
1412.6156921632769
 21
294.57380509016809
 31
0.0
  0
LINE
  5
B4F
  8
0
 62
     0
 10
1826.615692163278
 20
713.06393315070284
 30
0.0
 11
1844.6156921632739
 21
731.06393315069943
 31
0.0
  0
LINE
  5
B50
  8
0
 62
     0
 10
1394.6156921632769
 20
281.0639331507021
 30
0.0
 11
1412.6156921632769
 21
299.06393315070261
 31
0.0
  0
LINE
  5
B51
  8
0
 62
     0
 10
1826.615692163278
 20
717.55406121123735
 30
0.0
 11
1844.6156921632739
 21
735.55406121123394
 31
0.0
  0
LINE
  5
B52
  8
0
 62
     0
 10
1394.6156921632769
 20
285.55406121123661
 30
0.0
 11
1412.6156921632769
 21
303.55406121123718
 31
0.0
  0
LINE
  5
B53
  8
0
 62
     0
 10
1826.615692163278
 20
722.04418927177221
 30
0.0
 11
1844.6156921632739
 21
740.04418927176857
 31
0.0
  0
LINE
  5
B54
  8
0
 62
     0
 10
1394.6156921632769
 20
290.04418927177119
 30
0.0
 11
1412.6156921632769
 21
308.04418927177193
 31
0.0
  0
LINE
  5
B55
  8
0
 62
     0
 10
1826.615692163278
 20
726.53431733230639
 30
0.0
 11
1844.6156921632739
 21
744.53431733230298
 31
0.0
  0
LINE
  5
B56
  8
0
 62
     0
 10
1394.6156921632769
 20
294.53431733230587
 30
0.0
 11
1412.6156921632769
 21
312.53431733230639
 31
0.0
  0
LINE
  5
B57
  8
0
 62
     0
 10
1826.615692163278
 20
731.02444539284124
 30
0.0
 11
1844.6156921632739
 21
749.02444539283726
 31
0.0
  0
LINE
  5
B58
  8
0
 62
     0
 10
1394.6156921632769
 20
299.02444539284051
 30
0.0
 11
1412.6156921632769
 21
317.02444539284102
 31
0.0
  0
LINE
  5
B59
  8
0
 62
     0
 10
1826.615692163278
 20
735.51457345337565
 30
0.0
 11
1844.6156921632739
 21
753.51457345337201
 31
0.0
  0
LINE
  5
B5A
  8
0
 62
     0
 10
1394.6156921632769
 20
303.51457345337502
 30
0.0
 11
1412.6156921632769
 21
321.51457345337548
 31
0.0
  0
LINE
  5
B5B
  8
0
 62
     0
 10
1826.615692163278
 20
740.00470151391039
 30
0.0
 11
1844.6156921632739
 21
758.00470151390675
 31
0.0
  0
LINE
  5
B5C
  8
0
 62
     0
 10
1394.6156921632769
 20
308.00470151390959
 30
0.0
 11
1412.6156921632769
 21
326.00470151391022
 31
0.0
  0
LINE
  5
B5D
  8
0
 62
     0
 10
1402.6156921632769
 20
320.49482957444508
 30
0.0
 11
1412.615692163278
 21
330.49482957444491
 31
0.0
  0
LINE
  5
B5E
  8
0
 62
     0
 10
1826.615692163278
 20
744.49482957444491
 30
0.0
 11
1844.6156921632739
 21
762.49482957444116
 31
0.0
  0
LINE
  5
B5F
  8
0
 62
     0
 10
1394.6156921632769
 20
312.49482957444411
 30
0.0
 11
1402.4002868078639
 21
320.27942421903111
 31
0.0
  0
LINE
  5
B60
  8
0
 62
     0
 10
1402.6156921632769
 20
324.98495763497959
 30
0.0
 11
1410.910158747329
 21
333.27942421903111
 31
0.0
  0
LINE
  5
B61
  8
0
 62
     0
 10
1826.615692163278
 20
748.98495763497942
 30
0.0
 11
1844.6156921632739
 21
766.98495763497579
 31
0.0
  0
LINE
  5
B62
  8
0
 62
     0
 10
1394.6156921632769
 20
316.98495763497863
 30
0.0
 11
1397.910158747329
 21
320.27942421903111
 31
0.0
  0
LINE
  5
B63
  8
0
 62
     0
 10
1826.615692163278
 20
753.47508569551394
 30
0.0
 11
1844.6156921632739
 21
771.47508569551019
 31
0.0
  0
LINE
  5
B64
  8
0
 62
     0
 10
1402.6156921632769
 20
329.47508569551422
 30
0.0
 11
1406.4200306867949
 21
333.27942421903111
 31
0.0
  0
LINE
  5
B65
  8
0
 62
     0
 10
1826.615692163278
 20
757.96521375604846
 30
0.0
 11
1844.6156921632739
 21
775.96521375604493
 31
0.0
  0
LINE
  5
B66
  8
0
 62
     0
 10
1826.615692163278
 20
762.45534181658309
 30
0.0
 11
1844.6156921632739
 21
780.45534181657945
 31
0.0
  0
LINE
  5
B67
  8
0
 62
     0
 10
1826.615692163278
 20
766.94546987711783
 30
0.0
 11
1844.6156921632739
 21
784.94546987711408
 31
0.0
  0
LINE
  5
B68
  8
0
 62
     0
 10
1826.615692163278
 20
771.43559793765235
 30
0.0
 11
1844.6156921632739
 21
789.43559793764837
 31
0.0
  0
LINE
  5
B69
  8
0
 62
     0
 10
1826.615692163278
 20
775.92572599818686
 30
0.0
 11
1844.6156921632739
 21
793.92572599818334
 31
0.0
  0
LINE
  5
B6A
  8
0
 62
     0
 10
1826.615692163278
 20
780.41585405872149
 30
0.0
 11
1844.6156921632739
 21
798.41585405871763
 31
0.0
  0
LINE
  5
B6B
  8
0
 62
     0
 10
1826.615692163278
 20
784.90598211925601
 30
0.0
 11
1844.6156921632739
 21
802.90598211925214
 31
0.0
  0
LINE
  5
B6C
  8
0
 62
     0
 10
1826.615692163278
 20
789.39611017979075
 30
0.0
 11
1844.6156921632739
 21
807.39611017978677
 31
0.0
  0
LINE
  5
B6D
  8
0
 62
     0
 10
1826.615692163278
 20
793.88623824032516
 30
0.0
 11
1844.6156921632739
 21
811.88623824032129
 31
0.0
  0
LINE
  5
B6E
  8
0
 62
     0
 10
1826.615692163278
 20
798.37636630085979
 30
0.0
 11
1844.6156921632739
 21
816.37636630085569
 31
0.0
  0
LINE
  5
B6F
  8
0
 62
     0
 10
1826.615692163278
 20
802.8664943613943
 30
0.0
 11
1844.6156921632739
 21
820.86649436139044
 31
0.0
  0
LINE
  5
B70
  8
0
 62
     0
 10
1826.615692163278
 20
807.35662242192882
 30
0.0
 11
1844.6156921632739
 21
825.35662242192495
 31
0.0
  0
LINE
  5
B71
  8
0
 62
     0
 10
1826.615692163278
 20
811.84675048246356
 30
0.0
 11
1844.6156921632739
 21
829.84675048245947
 31
0.0
  0
LINE
  5
B72
  8
0
 62
     0
 10
1826.615692163278
 20
816.33687854299797
 30
0.0
 11
1844.6156921632739
 21
834.3368785429941
 31
0.0
  0
LINE
  5
B73
  8
0
 62
     0
 10
1826.615692163278
 20
820.82700660353271
 30
0.0
 11
1844.6156921632739
 21
838.82700660352873
 31
0.0
  0
LINE
  5
B74
  8
0
 62
     0
 10
1826.615692163278
 20
825.31713466406711
 30
0.0
 11
1844.6156921632739
 21
843.31713466406336
 31
0.0
  0
LINE
  5
B75
  8
0
 62
     0
 10
1826.615692163278
 20
829.80726272460186
 30
0.0
 11
1844.6156921632739
 21
847.80726272459776
 31
0.0
  0
LINE
  5
B76
  8
0
 62
     0
 10
1826.615692163278
 20
834.29739078513614
 30
0.0
 11
1844.6156921632739
 21
852.29739078513228
 31
0.0
  0
LINE
  5
B77
  8
0
 62
     0
 10
1826.615692163278
 20
838.78751884567066
 30
0.0
 11
1844.6156921632739
 21
856.78751884566714
 31
0.0
  0
LINE
  5
B78
  8
0
 62
     0
 10
1826.615692163278
 20
843.27764690620552
 30
0.0
 11
1844.6156921632739
 21
861.27764690620143
 31
0.0
  0
LINE
  5
B79
  8
0
 62
     0
 10
1826.615692163278
 20
847.76777496674015
 30
0.0
 11
1844.6156921632739
 21
865.76777496673617
 31
0.0
  0
LINE
  5
B7A
  8
0
 62
     0
 10
1826.615692163278
 20
852.25790302727455
 30
0.0
 11
1844.6156921632739
 21
870.25790302727046
 31
0.0
  0
LINE
  5
B7B
  8
0
 62
     0
 10
1826.615692163278
 20
856.74803108780941
 30
0.0
 11
1844.6156921632739
 21
874.74803108780554
 31
0.0
  0
LINE
  5
B7C
  8
0
 62
     0
 10
1826.615692163278
 20
861.23815914834393
 30
0.0
 11
1844.6156921632739
 21
879.23815914833983
 31
0.0
  0
LINE
  5
B7D
  8
0
 62
     0
 10
1826.615692163278
 20
865.72828720887833
 30
0.0
 11
1844.6156921632739
 21
883.72828720887424
 31
0.0
  0
LINE
  5
B7E
  8
0
 62
     0
 10
1826.615692163278
 20
870.21841526941284
 30
0.0
 11
1844.6156921632739
 21
888.21841526940875
 31
0.0
  0
LINE
  5
B7F
  8
0
 62
     0
 10
1826.615692163278
 20
874.70854332994725
 30
0.0
 11
1844.615692163273
 21
892.70854332994327
 31
0.0
  0
LINE
  5
B80
  8
0
 62
     0
 10
1826.615692163278
 20
879.19867139048222
 30
0.0
 11
1844.615692163273
 21
897.1986713904779
 31
0.0
  0
LINE
  5
B81
  8
0
 62
     0
 10
1826.615692163278
 20
883.68879945101651
 30
0.0
 11
1844.6156921632739
 21
901.68879945101264
 31
0.0
  0
LINE
  5
B82
  8
0
 62
     0
 10
1826.615692163278
 20
888.17892751155125
 30
0.0
 11
1844.615692163273
 21
906.17892751154704
 31
0.0
  0
LINE
  5
B83
  8
0
 62
     0
 10
1826.615692163278
 20
892.66905557208577
 30
0.0
 11
1844.6156921632739
 21
910.66905557208167
 31
0.0
  0
LINE
  5
B84
  8
0
 62
     0
 10
1826.615692163278
 20
897.1591836326204
 30
0.0
 11
1842.7359327496879
 21
913.27942421903094
 31
0.0
  0
LINE
  5
B85
  8
0
 62
     0
 10
1826.615692163278
 20
901.64931169315491
 30
0.0
 11
1838.2458046891541
 21
913.27942421903094
 31
0.0
  0
LINE
  5
B86
  8
0
 62
     0
 10
1826.615692163278
 20
906.13943975368943
 30
0.0
 11
1833.7556766286191
 21
913.27942421903094
 31
0.0
  0
LINE
  5
B87
  8
0
 62
     0
 10
1826.615692163278
 20
910.62956781422417
 30
0.0
 11
1829.2655485680839
 21
913.27942421903094
 31
0.0
  0
LINE
  5
B88
  8
0
 62
     0
 10
1412.502475115255
 20
604.27942421903094
 30
0.0
 11
1412.6156921632769
 21
604.39264126705314
 31
0.0
  0
LINE
  5
B89
  8
0
 62
     0
 10
1408.0123470547201
 20
604.27942421903094
 30
0.0
 11
1412.6156921632769
 21
608.88276932758777
 31
0.0
  0
LINE
  5
B8A
  8
0
 62
     0
 10
1403.5222189941851
 20
604.27942421903094
 30
0.0
 11
1412.6156921632769
 21
613.37289738812251
 31
0.0
  0
LINE
  5
B8B
  8
0
 62
     0
 10
1402.6156921632769
 20
607.86302544865794
 30
0.0
 11
1412.6156921632769
 21
617.86302544865703
 31
0.0
  0
LINE
  5
B8C
  8
0
 62
     0
 10
1402.6156921632769
 20
612.35315350919234
 30
0.0
 11
1412.6156921632769
 21
622.35315350919154
 31
0.0
  0
LINE
  5
B8D
  8
0
 62
     0
 10
1402.6156921632769
 20
616.84328156972686
 30
0.0
 11
1412.6156921632769
 21
626.84328156972595
 31
0.0
  0
LINE
  5
B8E
  8
0
 62
     0
 10
1398.561706752047
 20
617.27942421903106
 30
0.0
 11
1412.6156921632769
 21
631.33340963026069
 31
0.0
  0
LINE
  5
B8F
  8
0
 62
     0
 10
1394.6156921632769
 20
617.82353769079532
 30
0.0
 11
1412.6156921632769
 21
635.82353769079532
 31
0.0
  0
LINE
  5
B90
  8
0
 62
     0
 10
1394.6156921632769
 20
622.31366575132972
 30
0.0
 11
1412.6156921632769
 21
640.31366575132995
 31
0.0
  0
LINE
  5
B91
  8
0
 62
     0
 10
1394.6156921632769
 20
626.80379381186435
 30
0.0
 11
1412.6156921632769
 21
644.80379381186447
 31
0.0
  0
LINE
  5
B92
  8
0
 62
     0
 10
1394.6156921632769
 20
631.29392187239887
 30
0.0
 11
1412.6156921632769
 21
649.29392187239898
 31
0.0
  0
LINE
  5
B93
  8
0
 62
     0
 10
1394.6156921632769
 20
635.78404993293339
 30
0.0
 11
1412.6156921632769
 21
653.78404993293361
 31
0.0
  0
LINE
  5
B94
  8
0
 62
     0
 10
1394.6156921632769
 20
640.27417799346802
 30
0.0
 11
1412.6156921632769
 21
658.27417799346813
 31
0.0
  0
LINE
  5
B95
  8
0
 62
     0
 10
1394.6156921632769
 20
644.76430605400287
 30
0.0
 11
1411.880810328305
 21
662.02942421903037
 31
0.0
  0
LINE
  5
B96
  8
0
 62
     0
 10
1399.6156921632769
 20
654.25443411453705
 30
0.0
 11
1407.39068226777
 21
662.02942421903037
 31
0.0
  0
LINE
  5
B97
  8
0
 62
     0
 10
1394.6156921632769
 20
649.25443411453716
 30
0.0
 11
1397.6406822677709
 21
652.27942421903094
 31
0.0
  0
LINE
  5
B98
  8
0
 62
     0
 10
1399.6156921632769
 20
658.74456217507179
 30
0.0
 11
1402.900554207235
 21
662.02942421903083
 31
0.0
  0
LINE
  5
B99
  8
0
 62
     0
 10
1409.6078649360099
 20
763.02942421903106
 30
0.0
 11
1412.6156921632769
 21
766.03725144629777
 31
0.0
  0
LINE
  5
B9A
  8
0
 62
     0
 10
1405.1177368754761
 20
763.02942421903106
 30
0.0
 11
1412.6156921632769
 21
770.5273795068324
 31
0.0
  0
LINE
  5
B9B
  8
0
 62
     0
 10
1400.6276088149409
 20
763.02942421903128
 30
0.0
 11
1412.6156921632769
 21
775.01750756736703
 31
0.0
  0
LINE
  5
B9C
  8
0
 62
     0
 10
1399.6156921632769
 20
766.50763562790155
 30
0.0
 11
1412.6156921632769
 21
779.50763562790155
 31
0.0
  0
LINE
  5
B9D
  8
0
 62
     0
 10
1399.6156921632769
 20
770.99776368843641
 30
0.0
 11
1412.6156921632769
 21
783.99776368843618
 31
0.0
  0
LINE
  5
B9E
  8
0
 62
     0
 10
1396.9072246333369
 20
772.7794242190314
 30
0.0
 11
1412.6156921632769
 21
788.48789174897092
 31
0.0
  0
LINE
  5
B9F
  8
0
 62
     0
 10
1394.6156921632769
 20
774.97801980950544
 30
0.0
 11
1412.6156921632769
 21
792.97801980950521
 31
0.0
  0
LINE
  5
BA0
  8
0
 62
     0
 10
1394.6156921632769
 20
779.46814787003996
 30
0.0
 11
1408.6769685122681
 21
793.52942421903094
 31
0.0
  0
LINE
  5
BA1
  8
0
 62
     0
 10
1399.6156921632769
 20
788.95827593057447
 30
0.0
 11
1404.1868404517329
 21
793.52942421903117
 31
0.0
  0
LINE
  5
BA2
  8
0
 62
     0
 10
1394.6156921632769
 20
783.95827593057436
 30
0.0
 11
1398.4368404517329
 21
787.77942421903072
 31
0.0
  0
LINE
  5
BA3
  8
0
 62
     0
 10
1399.6156921632769
 20
793.44840399110888
 30
0.0
 11
1399.6967123911991
 21
793.52942421903094
 31
0.0
  0
LINE
  5
BA4
  8
0
 62
     0
 10
1412.3645353621109
 20
882.52942421903094
 30
0.0
 11
1412.6156921632769
 21
882.78058102019668
 31
0.0
  0
LINE
  5
BA5
  8
0
 62
     0
 10
1407.874407301576
 20
882.52942421903094
 30
0.0
 11
1412.6156921632769
 21
887.27070908073165
 31
0.0
  0
LINE
  5
BA6
  8
0
 62
     0
 10
1403.3842792410419
 20
882.52942421903106
 30
0.0
 11
1412.6156921632769
 21
891.76083714126605
 31
0.0
  0
LINE
  5
BA7
  8
0
 62
     0
 10
1399.6156921632769
 20
883.25096520180068
 30
0.0
 11
1412.6156921632769
 21
896.25096520180057
 31
0.0
  0
LINE
  5
BA8
  8
0
 62
     0
 10
1399.6156921632769
 20
887.74109326233497
 30
0.0
 11
1412.6156921632769
 21
900.7410932623352
 31
0.0
  0
LINE
  5
BA9
  8
0
 62
     0
 10
1395.6638950594379
 20
888.27942421903094
 30
0.0
 11
1412.6156921632769
 21
905.23122132286971
 31
0.0
  0
LINE
  5
BAA
  8
0
 62
     0
 10
1394.6156921632769
 20
891.72134938340434
 30
0.0
 11
1412.6156921632769
 21
909.72134938340434
 31
0.0
  0
LINE
  5
BAB
  8
0
 62
     0
 10
1394.6156921632769
 20
896.21147744393875
 30
0.0
 11
1411.6836389383691
 21
913.27942421903094
 31
0.0
  0
LINE
  5
BAC
  8
0
 62
     0
 10
1394.6156921632769
 20
900.70160550447326
 30
0.0
 11
1407.1935108778339
 21
913.27942421903094
 31
0.0
  0
LINE
  5
BAD
  8
0
 62
     0
 10
1394.6156921632769
 20
905.19173356500789
 30
0.0
 11
1402.7033828173001
 21
913.27942421903117
 31
0.0
  0
LINE
  5
BAE
  8
0
 62
     0
 10
1394.6156921632769
 20
909.68186162554264
 30
0.0
 11
1398.2132547567651
 21
913.27942421903117
 31
0.0
  0
ENDBLK
  5
BB0
  8
0
  0
BLOCK
  8
0
  2
*X78
 70
     1
 10
0.0
 20
0.0
 30
0.0
  3
*X78
  1

  0
LINE
  5
BB2
  8
0
 62
     0
 10
1826.615692163278
 20
912.36242476281302
 30
0.0
 11
1825.69869270706
 21
913.27942421903117
 31
0.0
  0
LINE
  5
BB3
  8
0
 62
     0
 10
1826.615692163278
 20
907.87229670227839
 30
0.0
 11
1821.208564646525
 21
913.27942421903117
 31
0.0
  0
LINE
  5
BB4
  8
0
 62
     0
 10
1826.615692163278
 20
903.38216864174376
 30
0.0
 11
1816.718436585991
 21
913.27942421903094
 31
0.0
  0
LINE
  5
BB5
  8
0
 62
     0
 10
1826.615692163278
 20
898.89204058120924
 30
0.0
 11
1812.228308525456
 21
913.27942421903094
 31
0.0
  0
LINE
  5
BB6
  8
0
 62
     0
 10
1825.738180464921
 20
895.2794242190314
 30
0.0
 11
1807.738180464921
 21
913.27942421903117
 31
0.0
  0
LINE
  5
BB7
  8
0
 62
     0
 10
1821.248052404387
 20
895.2794242190314
 30
0.0
 11
1803.248052404387
 21
913.27942421903117
 31
0.0
  0
LINE
  5
BB8
  8
0
 62
     0
 10
1816.757924343852
 20
895.2794242190314
 30
0.0
 11
1798.757924343852
 21
913.27942421903117
 31
0.0
  0
LINE
  5
BB9
  8
0
 62
     0
 10
1812.267796283317
 20
895.2794242190314
 30
0.0
 11
1794.2677962833179
 21
913.27942421903117
 31
0.0
  0
LINE
  5
BBA
  8
0
 62
     0
 10
1807.7776682227829
 20
895.2794242190314
 30
0.0
 11
1789.7776682227829
 21
913.27942421903117
 31
0.0
  0
LINE
  5
BBB
  8
0
 62
     0
 10
1803.2875401622489
 20
895.27942421903106
 30
0.0
 11
1785.287540162248
 21
913.27942421903094
 31
0.0
  0
LINE
  5
BBC
  8
0
 62
     0
 10
1798.7974121017139
 20
895.2794242190314
 30
0.0
 11
1780.7974121017139
 21
913.27942421903094
 31
0.0
  0
LINE
  5
BBD
  8
0
 62
     0
 10
1794.3072840411789
 20
895.2794242190314
 30
0.0
 11
1776.3072840411789
 21
913.27942421903094
 31
0.0
  0
LINE
  5
BBE
  8
0
 62
     0
 10
1789.817155980644
 20
895.2794242190314
 30
0.0
 11
1771.817155980644
 21
913.27942421903117
 31
0.0
  0
LINE
  5
BBF
  8
0
 62
     0
 10
1785.3270279201099
 20
895.2794242190314
 30
0.0
 11
1767.3270279201099
 21
913.27942421903117
 31
0.0
  0
LINE
  5
BC0
  8
0
 62
     0
 10
1780.8368998595761
 20
895.2794242190314
 30
0.0
 11
1762.8368998595761
 21
913.27942421903117
 31
0.0
  0
LINE
  5
BC1
  8
0
 62
     0
 10
1776.3467717990411
 20
895.2794242190314
 30
0.0
 11
1758.3467717990411
 21
913.27942421903117
 31
0.0
  0
LINE
  5
BC2
  8
0
 62
     0
 10
1771.8566437385059
 20
895.2794242190314
 30
0.0
 11
1753.8566437385059
 21
913.27942421903117
 31
0.0
  0
LINE
  5
BC3
  8
0
 62
     0
 10
1767.3665156779721
 20
895.27942421903106
 30
0.0
 11
1749.3665156779721
 21
913.27942421903094
 31
0.0
  0
LINE
  5
BC4
  8
0
 62
     0
 10
1762.8763876174371
 20
895.27942421903106
 30
0.0
 11
1744.8763876174371
 21
913.27942421903117
 31
0.0
  0
LINE
  5
BC5
  8
0
 62
     0
 10
1758.386259556903
 20
895.27942421903106
 30
0.0
 11
1740.386259556903
 21
913.27942421903117
 31
0.0
  0
LINE
  5
BC6
  8
0
 62
     0
 10
1753.8961314963681
 20
895.27942421903106
 30
0.0
 11
1735.8961314963681
 21
913.27942421903117
 31
0.0
  0
LINE
  5
BC7
  8
0
 62
     0
 10
1749.406003435834
 20
895.27942421903106
 30
0.0
 11
1731.406003435834
 21
913.27942421903117
 31
0.0
  0
LINE
  5
BC8
  8
0
 62
     0
 10
1744.915875375299
 20
895.27942421903106
 30
0.0
 11
1726.915875375299
 21
913.27942421903117
 31
0.0
  0
LINE
  5
BC9
  8
0
 62
     0
 10
1740.4257473147641
 20
895.27942421903106
 30
0.0
 11
1722.4257473147641
 21
913.27942421903117
 31
0.0
  0
LINE
  5
BCA
  8
0
 62
     0
 10
1735.93561925423
 20
895.27942421903106
 30
0.0
 11
1717.93561925423
 21
913.27942421903117
 31
0.0
  0
LINE
  5
BCB
  8
0
 62
     0
 10
1731.445491193695
 20
895.27942421903106
 30
0.0
 11
1713.445491193695
 21
913.27942421903094
 31
0.0
  0
LINE
  5
BCC
  8
0
 62
     0
 10
1726.955363133161
 20
895.27942421903106
 30
0.0
 11
1708.9553631331601
 21
913.27942421903117
 31
0.0
  0
LINE
  5
BCD
  8
0
 62
     0
 10
1722.465235072626
 20
895.27942421903106
 30
0.0
 11
1704.465235072626
 21
913.27942421903117
 31
0.0
  0
LINE
  5
BCE
  8
0
 62
     0
 10
1717.9751070120919
 20
895.27942421903106
 30
0.0
 11
1699.975107012091
 21
913.27942421903117
 31
0.0
  0
LINE
  5
BCF
  8
0
 62
     0
 10
1713.484978951557
 20
895.27942421903106
 30
0.0
 11
1695.484978951557
 21
913.27942421903117
 31
0.0
  0
LINE
  5
BD0
  8
0
 62
     0
 10
1708.994850891022
 20
895.27942421903106
 30
0.0
 11
1690.994850891022
 21
913.27942421903117
 31
0.0
  0
LINE
  5
BD1
  8
0
 62
     0
 10
1704.5047228304879
 20
895.27942421903106
 30
0.0
 11
1686.5047228304879
 21
913.27942421903117
 31
0.0
  0
LINE
  5
BD2
  8
0
 62
     0
 10
1700.014594769953
 20
895.2794242190314
 30
0.0
 11
1682.014594769953
 21
913.2794242190314
 31
0.0
  0
LINE
  5
BD3
  8
0
 62
     0
 10
1695.5244667094189
 20
895.27942421903106
 30
0.0
 11
1677.5244667094189
 21
913.27942421903117
 31
0.0
  0
LINE
  5
BD4
  8
0
 62
     0
 10
1691.0343386488839
 20
895.27942421903106
 30
0.0
 11
1673.0343386488839
 21
913.27942421903117
 31
0.0
  0
LINE
  5
BD5
  8
0
 62
     0
 10
1686.544210588349
 20
895.27942421903106
 30
0.0
 11
1668.544210588349
 21
913.27942421903117
 31
0.0
  0
LINE
  5
BD6
  8
0
 62
     0
 10
1682.0540825278149
 20
895.27942421903106
 30
0.0
 11
1664.0540825278149
 21
913.27942421903117
 31
0.0
  0
LINE
  5
BD7
  8
0
 62
     0
 10
1677.5639544672799
 20
895.27942421903106
 30
0.0
 11
1659.5639544672799
 21
913.27942421903117
 31
0.0
  0
LINE
  5
BD8
  8
0
 62
     0
 10
1673.0738264067461
 20
895.27942421903106
 30
0.0
 11
1655.0738264067461
 21
913.27942421903117
 31
0.0
  0
LINE
  5
BD9
  8
0
 62
     0
 10
1668.5836983462109
 20
895.27942421903106
 30
0.0
 11
1650.5836983462109
 21
913.2794242190314
 31
0.0
  0
LINE
  5
BDA
  8
0
 62
     0
 10
1664.0935702856771
 20
895.27942421903094
 30
0.0
 11
1646.0935702856771
 21
913.27942421903117
 31
0.0
  0
LINE
  5
BDB
  8
0
 62
     0
 10
1659.6034422251421
 20
895.27942421903094
 30
0.0
 11
1641.603442225141
 21
913.27942421903117
 31
0.0
  0
LINE
  5
BDC
  8
0
 62
     0
 10
1655.113314164608
 20
895.27942421903094
 30
0.0
 11
1637.1133141646069
 21
913.27942421903117
 31
0.0
  0
LINE
  5
BDD
  8
0
 62
     0
 10
1650.6231861040731
 20
895.27942421903094
 30
0.0
 11
1632.6231861040731
 21
913.27942421903117
 31
0.0
  0
LINE
  5
BDE
  8
0
 62
     0
 10
1646.1330580435381
 20
895.27942421903094
 30
0.0
 11
1628.1330580435381
 21
913.27942421903117
 31
0.0
  0
LINE
  5
BDF
  8
0
 62
     0
 10
1641.642929983004
 20
895.27942421903094
 30
0.0
 11
1623.642929983004
 21
913.27942421903117
 31
0.0
  0
LINE
  5
BE0
  8
0
 62
     0
 10
1637.15280192247
 20
895.27942421903094
 30
0.0
 11
1619.1528019224691
 21
913.2794242190314
 31
0.0
  0
LINE
  5
BE1
  8
0
 62
     0
 10
1632.662673861935
 20
895.27942421903106
 30
0.0
 11
1614.662673861935
 21
913.2794242190314
 31
0.0
  0
LINE
  5
BE2
  8
0
 62
     0
 10
1628.1725458014
 20
895.27942421903094
 30
0.0
 11
1610.1725458014
 21
913.27942421903117
 31
0.0
  0
LINE
  5
BE3
  8
0
 62
     0
 10
1623.682417740865
 20
895.27942421903094
 30
0.0
 11
1605.682417740865
 21
913.27942421903117
 31
0.0
  0
LINE
  5
BE4
  8
0
 62
     0
 10
1619.192289680331
 20
895.27942421903094
 30
0.0
 11
1601.192289680331
 21
913.27942421903117
 31
0.0
  0
LINE
  5
BE5
  8
0
 62
     0
 10
1614.7021616197969
 20
895.27942421903094
 30
0.0
 11
1596.702161619796
 21
913.27942421903117
 31
0.0
  0
LINE
  5
BE6
  8
0
 62
     0
 10
1610.212033559262
 20
895.27942421903106
 30
0.0
 11
1592.212033559262
 21
913.2794242190314
 31
0.0
  0
LINE
  5
BE7
  8
0
 62
     0
 10
1605.721905498727
 20
895.27942421903106
 30
0.0
 11
1587.721905498727
 21
913.2794242190314
 31
0.0
  0
LINE
  5
BE8
  8
0
 62
     0
 10
1601.2317774381929
 20
895.27942421903106
 30
0.0
 11
1583.231777438192
 21
913.2794242190314
 31
0.0
  0
LINE
  5
BE9
  8
0
 62
     0
 10
1596.741649377658
 20
895.27942421903106
 30
0.0
 11
1578.741649377658
 21
913.2794242190314
 31
0.0
  0
LINE
  5
BEA
  8
0
 62
     0
 10
1592.251521317123
 20
895.27942421903094
 30
0.0
 11
1574.251521317123
 21
913.27942421903117
 31
0.0
  0
LINE
  5
BEB
  8
0
 62
     0
 10
1587.7613932565889
 20
895.27942421903094
 30
0.0
 11
1569.761393256588
 21
913.2794242190314
 31
0.0
  0
LINE
  5
BEC
  8
0
 62
     0
 10
1583.2712651960551
 20
895.27942421903094
 30
0.0
 11
1565.2712651960539
 21
913.27942421903117
 31
0.0
  0
LINE
  5
BED
  8
0
 62
     0
 10
1578.7811371355201
 20
895.27942421903094
 30
0.0
 11
1560.7811371355201
 21
913.27942421903117
 31
0.0
  0
LINE
  5
BEE
  8
0
 62
     0
 10
1574.2910090749849
 20
895.27942421903094
 30
0.0
 11
1556.2910090749849
 21
913.27942421903117
 31
0.0
  0
LINE
  5
BEF
  8
0
 62
     0
 10
1569.8008810144511
 20
895.27942421903094
 30
0.0
 11
1551.8008810144499
 21
913.27942421903117
 31
0.0
  0
LINE
  5
BF0
  8
0
 62
     0
 10
1565.3107529539161
 20
895.27942421903106
 30
0.0
 11
1547.3107529539161
 21
913.27942421903117
 31
0.0
  0
LINE
  5
BF1
  8
0
 62
     0
 10
1560.820624893382
 20
895.27942421903106
 30
0.0
 11
1542.820624893382
 21
913.27942421903117
 31
0.0
  0
LINE
  5
BF2
  8
0
 62
     0
 10
1556.3304968328471
 20
895.27942421903094
 30
0.0
 11
1538.3304968328471
 21
913.27942421903094
 31
0.0
  0
LINE
  5
BF3
  8
0
 62
     0
 10
1551.8403687723121
 20
895.27942421903094
 30
0.0
 11
1533.8403687723121
 21
913.27942421903094
 31
0.0
  0
LINE
  5
BF4
  8
0
 62
     0
 10
1547.350240711778
 20
895.27942421903106
 30
0.0
 11
1529.350240711778
 21
913.27942421903094
 31
0.0
  0
LINE
  5
BF5
  8
0
 62
     0
 10
1542.8601126512431
 20
895.27942421903106
 30
0.0
 11
1524.8601126512431
 21
913.27942421903117
 31
0.0
  0
LINE
  5
BF6
  8
0
 62
     0
 10
1538.369984590709
 20
895.27942421903106
 30
0.0
 11
1520.3699845907081
 21
913.27942421903117
 31
0.0
  0
LINE
  5
BF7
  8
0
 62
     0
 10
1533.879856530174
 20
895.27942421903106
 30
0.0
 11
1515.879856530174
 21
913.27942421903117
 31
0.0
  0
LINE
  5
BF8
  8
0
 62
     0
 10
1529.3897284696391
 20
895.27942421903106
 30
0.0
 11
1511.3897284696391
 21
913.27942421903117
 31
0.0
  0
LINE
  5
BF9
  8
0
 62
     0
 10
1524.899600409105
 20
895.27942421903094
 30
0.0
 11
1506.899600409105
 21
913.27942421903094
 31
0.0
  0
LINE
  5
BFA
  8
0
 62
     0
 10
1520.40947234857
 20
895.27942421903094
 30
0.0
 11
1502.40947234857
 21
913.27942421903094
 31
0.0
  0
LINE
  5
BFB
  8
0
 62
     0
 10
1515.919344288036
 20
895.27942421903094
 30
0.0
 11
1497.919344288036
 21
913.27942421903094
 31
0.0
  0
LINE
  5
BFC
  8
0
 62
     0
 10
1511.429216227501
 20
895.27942421903094
 30
0.0
 11
1493.429216227501
 21
913.27942421903117
 31
0.0
  0
LINE
  5
BFD
  8
0
 62
     0
 10
1506.9390881669669
 20
895.27942421903094
 30
0.0
 11
1488.9390881669669
 21
913.27942421903117
 31
0.0
  0
LINE
  5
BFE
  8
0
 62
     0
 10
1502.448960106432
 20
895.27942421903106
 30
0.0
 11
1484.448960106432
 21
913.27942421903117
 31
0.0
  0
LINE
  5
BFF
  8
0
 62
     0
 10
1497.958832045897
 20
895.27942421903106
 30
0.0
 11
1479.9588320458979
 21
913.27942421903117
 31
0.0
  0
LINE
  5
C00
  8
0
 62
     0
 10
1493.4687039853629
 20
895.27942421903106
 30
0.0
 11
1475.4687039853629
 21
913.27942421903117
 31
0.0
  0
LINE
  5
C01
  8
0
 62
     0
 10
1488.978575924828
 20
895.27942421903106
 30
0.0
 11
1470.978575924828
 21
913.27942421903094
 31
0.0
  0
LINE
  5
C02
  8
0
 62
     0
 10
1484.4884478642939
 20
895.27942421903106
 30
0.0
 11
1466.4884478642939
 21
913.27942421903094
 31
0.0
  0
LINE
  5
C03
  8
0
 62
     0
 10
1479.9983198037589
 20
895.27942421903106
 30
0.0
 11
1461.9983198037589
 21
913.27942421903094
 31
0.0
  0
LINE
  5
C04
  8
0
 62
     0
 10
1475.508191743224
 20
895.27942421903106
 30
0.0
 11
1457.508191743224
 21
913.27942421903094
 31
0.0
  0
LINE
  5
C05
  8
0
 62
     0
 10
1471.0180636826899
 20
895.27942421903106
 30
0.0
 11
1453.0180636826899
 21
913.27942421903094
 31
0.0
  0
LINE
  5
C06
  8
0
 62
     0
 10
1466.5279356221549
 20
895.27942421903106
 30
0.0
 11
1448.5279356221549
 21
913.27942421903094
 31
0.0
  0
LINE
  5
C07
  8
0
 62
     0
 10
1462.0378075616211
 20
895.27942421903106
 30
0.0
 11
1444.0378075616211
 21
913.27942421903117
 31
0.0
  0
LINE
  5
C08
  8
0
 62
     0
 10
1457.5476795010859
 20
895.27942421903106
 30
0.0
 11
1439.5476795010859
 21
913.27942421903117
 31
0.0
  0
LINE
  5
C09
  8
0
 62
     0
 10
1453.0575514405521
 20
895.27942421903094
 30
0.0
 11
1435.0575514405521
 21
913.27942421903094
 31
0.0
  0
LINE
  5
C0A
  8
0
 62
     0
 10
1448.5674233800171
 20
895.27942421903094
 30
0.0
 11
1430.5674233800171
 21
913.27942421903094
 31
0.0
  0
LINE
  5
C0B
  8
0
 62
     0
 10
1444.0772953194819
 20
895.27942421903106
 30
0.0
 11
1426.077295319483
 21
913.27942421903094
 31
0.0
  0
LINE
  5
C0C
  8
0
 62
     0
 10
1439.5871672589481
 20
895.27942421903106
 30
0.0
 11
1421.5871672589481
 21
913.27942421903094
 31
0.0
  0
LINE
  5
C0D
  8
0
 62
     0
 10
1435.0970391984131
 20
895.27942421903106
 30
0.0
 11
1417.097039198414
 21
913.27942421903094
 31
0.0
  0
LINE
  5
C0E
  8
0
 62
     0
 10
1430.606911137879
 20
895.27942421903106
 30
0.0
 11
1412.6156921632769
 21
913.27064319363296
 31
0.0
  0
LINE
  5
C0F
  8
0
 62
     0
 10
1426.1167830773441
 20
895.27942421903106
 30
0.0
 11
1412.6156921632769
 21
908.78051513309856
 31
0.0
  0
LINE
  5
C10
  8
0
 62
     0
 10
1421.62665501681
 20
895.2794242190314
 30
0.0
 11
1412.6156921632769
 21
904.29038707256393
 31
0.0
  0
LINE
  5
C11
  8
0
 62
     0
 10
1417.136526956275
 20
895.27942421903106
 30
0.0
 11
1412.6156921632769
 21
899.80025901202907
 31
0.0
  0
LINE
  5
C12
  8
0
 62
     0
 10
1412.64639889574
 20
895.27942421903106
 30
0.0
 11
1412.6156921632769
 21
895.31013095149467
 31
0.0
  0
LINE
  5
C13
  8
0
 62
     0
 10
1826.615692163278
 20
-120.3670291601395
 30
0.0
 11
1824.9692387841069
 21
-118.7205757809687
 31
0.0
  0
LINE
  5
C14
  8
0
 62
     0
 10
1826.615692163278
 20
-124.857157220674
 30
0.0
 11
1820.4791107235731
 21
-118.7205757809687
 31
0.0
  0
LINE
  5
C15
  8
0
 62
     0
 10
1826.615692163278
 20
-129.3472852812086
 30
0.0
 11
1815.9889826630381
 21
-118.7205757809688
 31
0.0
  0
LINE
  5
C16
  8
0
 62
     0
 10
1826.615692163278
 20
-133.83741334174309
 30
0.0
 11
1811.4988546025029
 21
-118.7205757809688
 31
0.0
  0
LINE
  5
C17
  8
0
 62
     0
 10
1825.0087265419691
 20
-136.72057578096849
 30
0.0
 11
1807.0087265419691
 21
-118.7205757809688
 31
0.0
  0
LINE
  5
C18
  8
0
 62
     0
 10
1820.5185984814341
 20
-136.72057578096849
 30
0.0
 11
1802.5185984814341
 21
-118.7205757809688
 31
0.0
  0
LINE
  5
C19
  8
0
 62
     0
 10
1816.0284704208991
 20
-136.7205757809686
 30
0.0
 11
1798.0284704209
 21
-118.7205757809687
 31
0.0
  0
LINE
  5
C1A
  8
0
 62
     0
 10
1811.538342360365
 20
-136.7205757809686
 30
0.0
 11
1793.538342360365
 21
-118.7205757809687
 31
0.0
  0
LINE
  5
C1B
  8
0
 62
     0
 10
1807.0482142998301
 20
-136.72057578096829
 30
0.0
 11
1789.048214299831
 21
-118.7205757809687
 31
0.0
  0
LINE
  5
C1C
  8
0
 62
     0
 10
1802.558086239296
 20
-136.72057578096829
 30
0.0
 11
1784.558086239296
 21
-118.7205757809687
 31
0.0
  0
LINE
  5
C1D
  8
0
 62
     0
 10
1798.067958178761
 20
-136.72057578096849
 30
0.0
 11
1780.067958178761
 21
-118.7205757809687
 31
0.0
  0
LINE
  5
C1E
  8
0
 62
     0
 10
1793.577830118227
 20
-136.72057578096849
 30
0.0
 11
1775.577830118227
 21
-118.7205757809687
 31
0.0
  0
LINE
  5
C1F
  8
0
 62
     0
 10
1789.087702057692
 20
-136.72057578096829
 30
0.0
 11
1771.087702057692
 21
-118.7205757809687
 31
0.0
  0
LINE
  5
C20
  8
0
 62
     0
 10
1784.597573997157
 20
-136.72057578096829
 30
0.0
 11
1766.597573997158
 21
-118.7205757809687
 31
0.0
  0
LINE
  5
C21
  8
0
 62
     0
 10
1780.107445936623
 20
-136.72057578096849
 30
0.0
 11
1762.107445936623
 21
-118.7205757809688
 31
0.0
  0
LINE
  5
C22
  8
0
 62
     0
 10
1775.617317876088
 20
-136.72057578096849
 30
0.0
 11
1757.617317876088
 21
-118.7205757809688
 31
0.0
  0
LINE
  5
C23
  8
0
 62
     0
 10
1771.1271898155539
 20
-136.72057578096849
 30
0.0
 11
1753.1271898155539
 21
-118.7205757809687
 31
0.0
  0
LINE
  5
C24
  8
0
 62
     0
 10
1766.637061755019
 20
-136.72057578096849
 30
0.0
 11
1748.637061755019
 21
-118.7205757809687
 31
0.0
  0
LINE
  5
C25
  8
0
 62
     0
 10
1762.1469336944849
 20
-136.7205757809686
 30
0.0
 11
1744.1469336944849
 21
-118.7205757809688
 31
0.0
  0
LINE
  5
C26
  8
0
 62
     0
 10
1757.6568056339499
 20
-136.7205757809686
 30
0.0
 11
1739.6568056339499
 21
-118.7205757809688
 31
0.0
  0
LINE
  5
C27
  8
0
 62
     0
 10
1753.166677573415
 20
-136.7205757809686
 30
0.0
 11
1735.166677573415
 21
-118.7205757809688
 31
0.0
  0
LINE
  5
C28
  8
0
 62
     0
 10
1748.6765495128809
 20
-136.7205757809686
 30
0.0
 11
1730.6765495128809
 21
-118.7205757809688
 31
0.0
  0
LINE
  5
C29
  8
0
 62
     0
 10
1744.1864214523459
 20
-136.72057578096869
 30
0.0
 11
1726.1864214523471
 21
-118.7205757809689
 31
0.0
  0
LINE
  5
C2A
  8
0
 62
     0
 10
1739.6962933918121
 20
-136.7205757809686
 30
0.0
 11
1721.6962933918121
 21
-118.7205757809687
 31
0.0
  0
LINE
  5
C2B
  8
0
 62
     0
 10
1735.2061653312769
 20
-136.7205757809686
 30
0.0
 11
1717.206165331278
 21
-118.7205757809687
 31
0.0
  0
LINE
  5
C2C
  8
0
 62
     0
 10
1730.7160372707419
 20
-136.7205757809686
 30
0.0
 11
1712.7160372707431
 21
-118.7205757809687
 31
0.0
  0
LINE
  5
C2D
  8
0
 62
     0
 10
1726.2259092102081
 20
-136.72057578096869
 30
0.0
 11
1708.2259092102081
 21
-118.7205757809687
 31
0.0
  0
LINE
  5
C2E
  8
0
 62
     0
 10
1721.7357811496729
 20
-136.72057578096869
 30
0.0
 11
1703.735781149674
 21
-118.7205757809687
 31
0.0
  0
LINE
  5
C2F
  8
0
 62
     0
 10
1717.2456530891391
 20
-136.72057578096869
 30
0.0
 11
1699.2456530891391
 21
-118.7205757809687
 31
0.0
  0
LINE
  5
C30
  8
0
 62
     0
 10
1712.755525028605
 20
-136.7205757809688
 30
0.0
 11
1694.755525028605
 21
-118.7205757809688
 31
0.0
  0
LINE
  5
C31
  8
0
 62
     0
 10
1708.26539696807
 20
-136.7205757809686
 30
0.0
 11
1690.26539696807
 21
-118.7205757809688
 31
0.0
  0
LINE
  5
C32
  8
0
 62
     0
 10
1703.7752689075351
 20
-136.7205757809686
 30
0.0
 11
1685.7752689075351
 21
-118.7205757809687
 31
0.0
  0
LINE
  5
C33
  8
0
 62
     0
 10
1699.285140847001
 20
-136.7205757809686
 30
0.0
 11
1681.2851408470001
 21
-118.7205757809687
 31
0.0
  0
LINE
  5
C34
  8
0
 62
     0
 10
1694.795012786466
 20
-136.72057578096869
 30
0.0
 11
1676.795012786466
 21
-118.7205757809688
 31
0.0
  0
LINE
  5
C35
  8
0
 62
     0
 10
1690.304884725932
 20
-136.7205757809686
 30
0.0
 11
1672.304884725932
 21
-118.7205757809688
 31
0.0
  0
LINE
  5
C36
  8
0
 62
     0
 10
1685.814756665397
 20
-136.7205757809686
 30
0.0
 11
1667.814756665397
 21
-118.7205757809688
 31
0.0
  0
LINE
  5
C37
  8
0
 62
     0
 10
1681.324628604862
 20
-136.7205757809686
 30
0.0
 11
1663.324628604862
 21
-118.7205757809688
 31
0.0
  0
LINE
  5
C38
  8
0
 62
     0
 10
1676.834500544328
 20
-136.72057578096869
 30
0.0
 11
1658.834500544328
 21
-118.7205757809687
 31
0.0
  0
LINE
  5
C39
  8
0
 62
     0
 10
1672.344372483793
 20
-136.72057578096869
 30
0.0
 11
1654.344372483793
 21
-118.7205757809687
 31
0.0
  0
LINE
  5
C3A
  8
0
 62
     0
 10
1667.8542444232589
 20
-136.72057578096869
 30
0.0
 11
1649.8542444232589
 21
-118.7205757809687
 31
0.0
  0
LINE
  5
C3B
  8
0
 62
     0
 10
1663.364116362724
 20
-136.72057578096869
 30
0.0
 11
1645.364116362724
 21
-118.7205757809686
 31
0.0
  0
LINE
  5
C3C
  8
0
 62
     0
 10
1658.8739883021899
 20
-136.7205757809688
 30
0.0
 11
1640.8739883021899
 21
-118.7205757809687
 31
0.0
  0
LINE
  5
C3D
  8
0
 62
     0
 10
1654.3838602416549
 20
-136.7205757809688
 30
0.0
 11
1636.3838602416549
 21
-118.7205757809687
 31
0.0
  0
LINE
  5
C3E
  8
0
 62
     0
 10
1649.89373218112
 20
-136.72057578096869
 30
0.0
 11
1631.89373218112
 21
-118.7205757809687
 31
0.0
  0
LINE
  5
C3F
  8
0
 62
     0
 10
1645.4036041205859
 20
-136.72057578096869
 30
0.0
 11
1627.4036041205859
 21
-118.7205757809687
 31
0.0
  0
LINE
  5
C40
  8
0
 62
     0
 10
1640.9134760600509
 20
-136.7205757809688
 30
0.0
 11
1622.9134760600509
 21
-118.7205757809688
 31
0.0
  0
LINE
  5
C41
  8
0
 62
     0
 10
1636.4233479995171
 20
-136.7205757809688
 30
0.0
 11
1618.4233479995171
 21
-118.7205757809688
 31
0.0
  0
LINE
  5
C42
  8
0
 62
     0
 10
1631.9332199389819
 20
-136.7205757809688
 30
0.0
 11
1613.9332199389819
 21
-118.7205757809687
 31
0.0
  0
LINE
  5
C43
  8
0
 62
     0
 10
1627.4430918784481
 20
-136.7205757809688
 30
0.0
 11
1609.4430918784469
 21
-118.7205757809687
 31
0.0
  0
LINE
  5
C44
  8
0
 62
     0
 10
1622.9529638179131
 20
-136.72057578096889
 30
0.0
 11
1604.9529638179131
 21
-118.7205757809688
 31
0.0
  0
LINE
  5
C45
  8
0
 62
     0
 10
1618.462835757379
 20
-136.72057578096889
 30
0.0
 11
1600.4628357573779
 21
-118.7205757809688
 31
0.0
  0
LINE
  5
C46
  8
0
 62
     0
 10
1613.9727076968429
 20
-136.72057578096869
 30
0.0
 11
1595.9727076968441
 21
-118.7205757809688
 31
0.0
  0
LINE
  5
C47
  8
0
 62
     0
 10
1609.4825796363091
 20
-136.72057578096869
 30
0.0
 11
1591.4825796363091
 21
-118.7205757809688
 31
0.0
  0
LINE
  5
C48
  8
0
 62
     0
 10
1604.992451575775
 20
-136.72057578096889
 30
0.0
 11
1586.992451575775
 21
-118.7205757809687
 31
0.0
  0
LINE
  5
C49
  8
0
 62
     0
 10
1600.5023235152401
 20
-136.72057578096869
 30
0.0
 11
1582.5023235152401
 21
-118.7205757809687
 31
0.0
  0
LINE
  5
C4A
  8
0
 62
     0
 10
1596.0121954547051
 20
-136.72057578096869
 30
0.0
 11
1578.012195454706
 21
-118.7205757809687
 31
0.0
  0
LINE
  5
C4B
  8
0
 62
     0
 10
1591.522067394171
 20
-136.72057578096869
 30
0.0
 11
1573.522067394171
 21
-118.7205757809687
 31
0.0
  0
LINE
  5
C4C
  8
0
 62
     0
 10
1587.031939333637
 20
-136.7205757809688
 30
0.0
 11
1569.031939333637
 21
-118.7205757809688
 31
0.0
  0
LINE
  5
C4D
  8
0
 62
     0
 10
1582.541811273102
 20
-136.7205757809688
 30
0.0
 11
1564.541811273102
 21
-118.7205757809687
 31
0.0
  0
LINE
  5
C4E
  8
0
 62
     0
 10
1578.051683212567
 20
-136.72057578096869
 30
0.0
 11
1560.051683212567
 21
-118.7205757809687
 31
0.0
  0
LINE
  5
C4F
  8
0
 62
     0
 10
1573.561555152032
 20
-136.7205757809688
 30
0.0
 11
1555.561555152032
 21
-118.7205757809688
 31
0.0
  0
LINE
  5
C50
  8
0
 62
     0
 10
1569.071427091498
 20
-136.7205757809688
 30
0.0
 11
1551.071427091498
 21
-118.7205757809688
 31
0.0
  0
LINE
  5
C51
  8
0
 62
     0
 10
1564.5812990309639
 20
-136.7205757809688
 30
0.0
 11
1546.5812990309639
 21
-118.7205757809688
 31
0.0
  0
LINE
  5
C52
  8
0
 62
     0
 10
1560.0911709704289
 20
-136.7205757809688
 30
0.0
 11
1542.0911709704289
 21
-118.7205757809688
 31
0.0
  0
LINE
  5
C53
  8
0
 62
     0
 10
1555.601042909894
 20
-136.72057578096889
 30
0.0
 11
1537.601042909894
 21
-118.7205757809688
 31
0.0
  0
LINE
  5
C54
  8
0
 62
     0
 10
1551.1109148493599
 20
-136.72057578096869
 30
0.0
 11
1533.1109148493599
 21
-118.7205757809688
 31
0.0
  0
LINE
  5
C55
  8
0
 62
     0
 10
1546.6207867888249
 20
-136.72057578096869
 30
0.0
 11
1528.6207867888249
 21
-118.7205757809688
 31
0.0
  0
LINE
  5
C56
  8
0
 62
     0
 10
1542.13065872829
 20
-136.72057578096869
 30
0.0
 11
1524.1306587282911
 21
-118.7205757809688
 31
0.0
  0
LINE
  5
C57
  8
0
 62
     0
 10
1537.6405306677559
 20
-136.72057578096869
 30
0.0
 11
1519.6405306677559
 21
-118.7205757809689
 31
0.0
  0
LINE
  5
C58
  8
0
 62
     0
 10
1533.1504026072221
 20
-136.72057578096869
 30
0.0
 11
1515.1504026072221
 21
-118.7205757809689
 31
0.0
  0
LINE
  5
C59
  8
0
 62
     0
 10
1528.6602745466871
 20
-136.72057578096869
 30
0.0
 11
1510.6602745466871
 21
-118.7205757809689
 31
0.0
  0
LINE
  5
C5A
  8
0
 62
     0
 10
1524.1701464861519
 20
-136.72057578096869
 30
0.0
 11
1506.1701464861519
 21
-118.7205757809689
 31
0.0
  0
LINE
  5
C5B
  8
0
 62
     0
 10
1519.6800184256181
 20
-136.7205757809688
 30
0.0
 11
1501.6800184256181
 21
-118.720575780969
 31
0.0
  0
LINE
  5
C5C
  8
0
 62
     0
 10
1515.1898903650831
 20
-136.7205757809688
 30
0.0
 11
1497.1898903650831
 21
-118.720575780969
 31
0.0
  0
LINE
  5
C5D
  8
0
 62
     0
 10
1510.699762304549
 20
-136.72057578096869
 30
0.0
 11
1492.699762304549
 21
-118.720575780969
 31
0.0
  0
LINE
  5
C5E
  8
0
 62
     0
 10
1506.2096342440141
 20
-136.72057578096869
 30
0.0
 11
1488.2096342440141
 21
-118.7205757809688
 31
0.0
  0
LINE
  5
C5F
  8
0
 62
     0
 10
1501.7195061834791
 20
-136.7205757809688
 30
0.0
 11
1483.7195061834791
 21
-118.7205757809689
 31
0.0
  0
LINE
  5
C60
  8
0
 62
     0
 10
1497.229378122945
 20
-136.7205757809688
 30
0.0
 11
1479.229378122945
 21
-118.7205757809689
 31
0.0
  0
LINE
  5
C61
  8
0
 62
     0
 10
1492.7392500624101
 20
-136.7205757809688
 30
0.0
 11
1474.7392500624101
 21
-118.7205757809689
 31
0.0
  0
LINE
  5
C62
  8
0
 62
     0
 10
1488.249122001876
 20
-136.7205757809686
 30
0.0
 11
1470.249122001876
 21
-118.7205757809688
 31
0.0
  0
LINE
  5
C63
  8
0
 62
     0
 10
1483.758993941341
 20
-136.72057578096869
 30
0.0
 11
1465.758993941341
 21
-118.7205757809689
 31
0.0
  0
LINE
  5
C64
  8
0
 62
     0
 10
1479.2688658808061
 20
-136.72057578096869
 30
0.0
 11
1461.268865880807
 21
-118.7205757809689
 31
0.0
  0
LINE
  5
C65
  8
0
 62
     0
 10
1474.778737820272
 20
-136.72057578096869
 30
0.0
 11
1456.778737820272
 21
-118.7205757809689
 31
0.0
  0
LINE
  5
C66
  8
0
 62
     0
 10
1470.288609759737
 20
-136.7205757809688
 30
0.0
 11
1452.2886097597379
 21
-118.7205757809689
 31
0.0
  0
LINE
  5
C67
  8
0
 62
     0
 10
1465.798481699203
 20
-136.72057578096869
 30
0.0
 11
1447.798481699203
 21
-118.720575780969
 31
0.0
  0
LINE
  5
C68
  8
0
 62
     0
 10
1461.308353638668
 20
-136.72057578096869
 30
0.0
 11
1443.3083536386689
 21
-118.720575780969
 31
0.0
  0
LINE
  5
C69
  8
0
 62
     0
 10
1456.8182255781339
 20
-136.72057578096869
 30
0.0
 11
1438.8182255781339
 21
-118.7205757809689
 31
0.0
  0
LINE
  5
C6A
  8
0
 62
     0
 10
1452.328097517599
 20
-136.72057578096869
 30
0.0
 11
1434.328097517599
 21
-118.7205757809689
 31
0.0
  0
LINE
  5
C6B
  8
0
 62
     0
 10
1447.837969457064
 20
-136.7205757809688
 30
0.0
 11
1429.8379694570649
 21
-118.720575780969
 31
0.0
  0
LINE
  5
C6C
  8
0
 62
     0
 10
1443.3478413965299
 20
-136.7205757809688
 30
0.0
 11
1425.3478413965299
 21
-118.720575780969
 31
0.0
  0
LINE
  5
C6D
  8
0
 62
     0
 10
1438.8577133359961
 20
-136.7205757809688
 30
0.0
 11
1420.857713335995
 21
-118.7205757809688
 31
0.0
  0
LINE
  5
C6E
  8
0
 62
     0
 10
1434.3675852754609
 20
-136.72057578096869
 30
0.0
 11
1416.3675852754609
 21
-118.7205757809688
 31
0.0
  0
LINE
  5
C6F
  8
0
 62
     0
 10
1429.8774572149259
 20
-136.7205757809688
 30
0.0
 11
1412.6156921632769
 21
-119.4588107293193
 31
0.0
  0
LINE
  5
C70
  8
0
 62
     0
 10
1425.3873291543921
 20
-136.7205757809688
 30
0.0
 11
1412.6156921632769
 21
-123.9489387898538
 31
0.0
  0
LINE
  5
C71
  8
0
 62
     0
 10
1420.8972010938569
 20
-136.7205757809688
 30
0.0
 11
1412.6156921632769
 21
-128.43906685038829
 31
0.0
  0
LINE
  5
C72
  8
0
 62
     0
 10
1416.4070730333219
 20
-136.72057578096869
 30
0.0
 11
1412.6156921632769
 21
-132.92919491092309
 31
0.0
  0
ENDBLK
  5
C74
  8
0
  0
BLOCK
  8
0
  2
*U79
 70
     1
 10
0.0
 20
0.0
 30
0.0
  3
*U79
  1

  0
TEXT
  5
C76
  8
0
 62
     0
 10
844.27940143528633
 20
1100.4296372288611
 30
0.0
 40
2.5
  1
340
  0
ENDBLK
  5
C78
  8
0
  0
BLOCK
  8
0
  2
*U80
 70
     1
 10
0.0
 20
0.0
 30
0.0
  3
*U80
  1

  0
TEXT
  5
C7A
  8
0
 62
     0
 10
728.51749667338152
 20
999.05099511604794
 30
0.0
 40
2.5
  1
108
  0
ENDBLK
  5
C7C
  8
0
  0
BLOCK
  8
0
  2
*U81
 70
     1
 10
0.0
 20
0.0
 30
0.0
  3
*U81
  1

  0
TEXT
  5
C7E
  8
0
 62
     0
 10
843.6841633400478
 20
954.74443235248225
 30
0.0
 40
2.5
  1
80,2
  0
ENDBLK
  5
C80
  8
0
  0
BLOCK
  8
0
  2
*U82
 70
     1
 10
0.0
 20
0.0
 30
0.0
  3
*U82
  1

  0
TEXT
  5
C82
  8
0
 62
     0
 10
711.82133592910805
 20
833.26751945712635
 30
0.0
 40
2.5
  1
100,5
 50
90.0
  0
ENDBLK
  5
C84
  8
0
  0
BLOCK
  8
0
  2
*U83
 70
     1
 10
0.0
 20
0.0
 30
0.0
  3
*U83
  1

  0
TEXT
  5
C86
  8
0
 62
     0
 10
843.9222585781431
 20
927.51016618178346
 30
0.0
 40
2.5
  1
51,2
  0
ENDBLK
  5
C88
  8
0
  0
BLOCK
  8
0
  2
*U84
 70
     1
 10
0.0
 20
0.0
 30
0.0
  3
*U84
  1

  0
TEXT
  5
C8A
  8
0
 62
     0
 10
917.49477280793474
 20
836.06513850474551
 30
0.0
 40
2.5
  1
89
 50
90.0
  0
ENDBLK
  5
C8C
  8
0
  0
BLOCK
  8
0
  2
*U85
 70
     1
 10
0.0
 20
0.0
 30
0.0
  3
*U85
  1

  0
TEXT
  5
C8E
  8
0
 62
     0
 10
1053.745074417347
 20
780.10085279045973
 30
0.0
 40
2.5
  1
261
 50
90.0
  0
ENDBLK
  5
C90
  8
0
  0
BLOCK
  8
0
  2
*U86
 70
     1
 10
0.0
 20
0.0
 30
0.0
  3
*U86
  1

  0
TEXT
  5
C92
  8
0
 62
     0
 10
714.37603545312118
 20
707.76751945712624
 30
0.0
 40
2.5
  1
120,5
 50
90.0
  0
ENDBLK
  5
C94
  8
0
  0
BLOCK
  8
0
  2
*U87
 70
     1
 10
0.0
 20
0.0
 30
0.0
  3
*U87
  1

  0
TEXT
  5
C96
  8
0
 62
     0
 10
762.51006109606317
 20
710.08894802855502
 30
0.0
 40
2.5
  1
101
 50
90.0
  0
ENDBLK
  5
C98
  8
0
  0
BLOCK
  8
0
  2
*U88
 70
     1
 10
0.0
 20
0.0
 30
0.0
  3
*U88
  1

  0
TEXT
  5
C9A
  8
0
 62
     0
 10
843.68416334004792
 20
547.08146486767339
 30
0.0
 40
2.5
  1
98,2
  0
ENDBLK
  5
C9C
  8
0
  0
BLOCK
  8
0
  2
*U89
 70
     1
 10
0.0
 20
0.0
 30
0.0
  3
*U89
  1

  0
TEXT
  5
C9E
  8
0
 62
     0
 10
1056.422480190442
 20
466.10085279045978
 30
0.0
 40
2.5
  1
271
 50
90.0
  0
ENDBLK
  5
CA0
  8
0
  0
BLOCK
  8
0
  2
*U90
 70
     1
 10
0.0
 20
0.0
 30
0.0
  3
*U90
  1

  0
TEXT
  5
CA2
  8
0
 62
     0
 10
1124.182930190138
 20
465.56513850474551
 30
0.0
 40
2.5
  1
297
 50
90.0
  0
ENDBLK
  5
CA4
  8
0
  0
BLOCK
  8
0
  2
*U91
 70
     1
 10
0.0
 20
0.0
 30
0.0
  3
*U91
  1

  0
TEXT
  5
CA6
  8
0
 62
     0
 10
844.27940143528656
 20
277.52558847629371
 30
0.0
 40
2.5
  1
273
  0
ENDBLK
  5
CA8
  8
0
  0
BLOCK
  8
0
  2
*U92
 70
     1
 10
0.0
 20
0.0
 30
0.0
  3
*U92
  1

  0
TEXT
  5
CAA
  8
0
 62
     0
 10
844.33892524480973
 20
222.1049061757121
 30
0.0
 40
2.5
  1
299
  0
ENDBLK
  5
CAC
  8
0
  0
BLOCK
  8
0
  2
*U93
 70
     1
 10
0.0
 20
0.0
 30
0.0
  3
*U93
  1

  0
TEXT
  5
CAE
  8
0
 62
     0
 10
942.72208430208025
 20
632.75561469522165
 30
0.0
 40
2.5
  1
35
 50
90.0
  0
ENDBLK
  5
CB0
  8
0
  0
BLOCK
  8
0
  2
*U94
 70
     1
 10
0.0
 20
0.0
 30
0.0
  3
*U94
  1

  0
TEXT
  5
CB2
  8
0
 62
     0
 10
840.27602747357525
 20
898.75561469522177
 30
0.0
 40
2.5
  1
25
 50
90.0
  0
ENDBLK
  5
CB4
  8
0
  0
BLOCK
  8
0
  2
*U95
 70
     1
 10
0.0
 20
0.0
 30
0.0
  3
*U95
  1

  0
TEXT
  5
CCA
  8
0
 62
     0
 10
1162.489390380671
 20
384.11275755236471
 30
0.0
 40
2.5
  1
1050
 50
90.0
  0
ENDBLK
  5
CCC
  8
0
  0
BLOCK
  8
0
  2
*U96
 70
     1
 10
0.0
 20
0.0
 30
0.0
  3
*U96
  1

  0
TEXT
  5
CCE
  8
0
 62
     0
 10
844.27940143528633
 20
-222.78976640205829
 30
0.0
 40
2.5
  1
340
  0
ENDBLK
  5
CD0
  8
0
  0
BLOCK
  8
0
  2
*U97
 70
     1
 10
0.0
 20
0.0
 30
0.0
  3
*U97
  1

  0
TEXT
  5
CD2
  8
0
 62
     0
 10
599.16001007399984
 20
-498.79049855434539
 30
0.0
 40
2.5
  1
450
 50
90.0
  0
ENDBLK
  5
CD4
  8
0
  0
BLOCK
  8
0
  2
*U98
 70
     1
 10
0.0
 20
0.0
 30
0.0
  3
*U98
  1

  0
TEXT
  5
CD6
  8
0
 62
     0
 10
1119.436772749526
 20
-716.5262847759426
 30
0.0
 40
2.5
  1
17,62
 50
90.0
  0
ENDBLK
  5
CD8
  8
0
  0
BLOCK
  8
0
  2
*U99
 70
     1
 10
0.0
 20
0.0
 30
0.0
  3
*U99
  1

  0
TEXT
  5
CDA
  8
0
 62
     0
 10
957.10185969062354
 20
-613.54029346934374
 30
0.0
 40
2.5
  1
107,24
  0
ENDBLK
  5
CDC
  8
0
  0
BLOCK
  8
0
  2
*U100
 70
     1
 10
0.0
 20
0.0
 30
0.0
  3
*U100
  1

  0
TEXT
  5
CDE
  8
0
 62
     0
 10
844.45797286385755
 20
970.61310434134873
 30
0.0
 40
2.5
  1
124
  0
ENDBLK
  5
CE0
  8
0
  0
BLOCK
  8
0
  2
*U101
 70
     1
 10
0.0
 20
0.0
 30
0.0
  3
*U101
  1

  0
TEXT
  5
CE2
  8
0
 62
     0
 10
844.45797286385755
 20
-674.06868859019664
 30
0.0
 40
2.5
  1
124
  0
ENDBLK
  5
CE4
  8
0
  0
BLOCK
  8
0
  2
*U102
 70
     1
 10
0.0
 20
0.0
 30
0.0
  3
*U102
  1

  0
TEXT
  5
CE6
  8
0
 62
     0
 10
1398.3877607889181
 20
940.01684356473186
 30
0.0
 40
2.5
  1
17,07
  0
ENDBLK
  5
CE8
  8
0
  0
BLOCK
  8
0
  2
*U103
 70
     1
 10
0.0
 20
0.0
 30
0.0
  3
*U103
  1

  0
TEXT
  5
CEA
  8
0
 62
     0
 10
1401.8299778775629
 20
939.82618624690997
 30
0.0
 40
2.5
  1
18
  0
ENDBLK
  5
CEC
  8
0
  0
BLOCK
  8
0
  2
*U104
 70
     1
 10
0.0
 20
0.0
 30
0.0
  3
*U104
  1

  0
TEXT
  5
CEE
  8
0
 62
     0
 10
1337.3467350520159
 20
894.05323374284092
 30
0.0
 40
2.5
  1
5,75
 50
90.0
  0
ENDBLK
  5
CF0
  8
0
  0
BLOCK
  8
0
  2
*U105
 70
     1
 10
0.0
 20
0.0
 30
0.0
  3
*U105
  1

  0
TEXT
  5
CF2
  8
0
 62
     0
 10
1396.282358829943
 20
813.62152403511459
 30
0.0
 40
2.5
  1
5
  0
ENDBLK
  5
CF4
  8
0
  0
BLOCK
  8
0
  2
*U106
 70
     1
 10
0.0
 20
0.0
 30
0.0
  3
*U106
  1

  0
TEXT
  5
CF6
  8
0
 62
     0
 10
1441.33972354762
 20
836.06513850474551
 30
0.0
 40
2.5
  1
89
 50
90.0
  0
ENDBLK
  5
CF8
  8
0
  0
BLOCK
  8
0
  2
*U107
 70
     1
 10
0.0
 20
0.0
 30
0.0
  3
*U107
  1

  0
TEXT
  5
CFA
  8
0
 62
     0
 10
1347.6955635590759
 20
764.09490040950777
 30
0.0
 40
2.5
  1
9,75
 50
90.0
  0
ENDBLK
  5
CFC
  8
0
  0
BLOCK
  8
0
  2
*U108
 70
     1
 10
0.0
 20
0.0
 30
0.0
  3
*U108
  1

  0
TEXT
  5
CFE
  8
0
 62
     0
 10
1396.282358829943
 20
687.34056389367572
 30
0.0
 40
2.5
  1
5
  0
ENDBLK
  5
D00
  8
0
  0
BLOCK
  8
0
  2
*U109
 70
     1
 10
0.0
 20
0.0
 30
0.0
  3
*U109
  1

  0
TEXT
  5
D02
  8
0
 62
     0
 10
1429.2755869321909
 20
710.08894802855502
 30
0.0
 40
2.5
  1
101
 50
90.0
  0
ENDBLK
  5
D04
  8
0
  0
BLOCK
  8
0
  2
*U110
 70
     1
 10
0.0
 20
0.0
 30
0.0
  3
*U110
  1

  0
TEXT
  5
D06
  8
0
 62
     0
 10
1379.1195668412111
 20
608.99370993331684
 30
0.0
 40
2.5
  1
13
 50
90.0
  0
ENDBLK
  5
D08
  8
0
  0
BLOCK
  8
0
  2
*U111
 70
     1
 10
0.0
 20
0.0
 30
0.0
  3
*U111
  1

  0
TEXT
  5
D0A
  8
0
 62
     0
 10
1397.7823588299441
 20
394.4844848611674
 30
0.0
 40
2.5
  1
8
  0
ENDBLK
  5
D0C
  8
0
  0
BLOCK
  8
0
  2
*U112
 70
     1
 10
0.0
 20
0.0
 30
0.0
  3
*U112
  1

  0
TEXT
  5
D0E
  8
0
 62
     0
 10
1489.942443135044
 20
461.19665070626172
 30
0.0
 40
2.5
  1
273,78
 50
90.0
  0
ENDBLK
  5
D10
  8
0
  0
BLOCK
  8
0
  2
*U113
 70
     1
 10
0.0
 20
0.0
 30
0.0
  3
*U113
  1

  0
TEXT
  5
D12
  8
0
 62
     0
 10
1447.9547898372909
 20
466.10085279045978
 30
0.0
 40
2.5
  1
271
 50
90.0
  0
ENDBLK
  5
D14
  8
0
  0
BLOCK
  8
0
  2
*U114
 70
     1
 10
0.0
 20
0.0
 30
0.0
  3
*U114
  1

  0
TEXT
  5
D16
  8
0
 62
     0
 10
1879.7704677405341
 20
902.49370993331695
 30
0.0
 40
2.5
  1
18
 50
90.0
  0
ENDBLK
  5
D18
  8
0
  0
BLOCK
  8
0
  2
*U115
 70
     1
 10
0.0
 20
0.0
 30
0.0
  3
*U115
  1

  0
TEXT
  5
D1A
  8
0
 62
     0
 10
1833.8299778775611
 20
919.11522586530828
 30
0.0
 40
2.5
  1
18
  0
ENDBLK
  5
D1C
  8
0
  0
BLOCK
  8
0
  2
*U116
 70
     1
 10
0.0
 20
0.0
 30
0.0
  3
*U116
  1

  0
TEXT
  5
D1E
  8
0
 62
     0
 10
1869.8157640629199
 20
309.25561469522188
 30
0.0
 40
2.5
  1
20
 50
90.0
  0
ENDBLK
  5
D20
  8
0
  0
BLOCK
  8
0
  2
*U117
 70
     1
 10
0.0
 20
0.0
 30
0.0
  3
*U117
  1

  0
TEXT
  5
D22
  8
0
 62
     0
 10
1841.7228350204209
 20
96.338731503184135
 30
0.0
 40
2.5
  1
4
  0
ENDBLK
  5
D24
  8
0
  0
BLOCK
  8
0
  2
*U118
 70
     1
 10
0.0
 20
0.0
 30
0.0
  3
*U118
  1

  0
TEXT
  5
D26
  8
0
 62
     0
 10
1803.3171610158211
 20
186.00561469522191
 30
0.0
 40
2.5
  1
224
 50
90.0
  0
ENDBLK
  5
D28
  8
0
  0
BLOCK
  8
0
  2
*U119
 70
     1
 10
0.0
 20
0.0
 30
0.0
  3
*U119
  1

  0
TEXT
  5
D2A
  8
0
 62
     0
 10
1785.958419588181
 20
-51.803909114301831
 30
0.0
 40
2.5
  1
54
 50
90.0
  0
ENDBLK
  5
D2C
  8
0
  0
BLOCK
  8
0
  2
*U120
 70
     1
 10
0.0
 20
0.0
 30
0.0
  3
*U120
  1

  0
TEXT
  5
D2E
  8
0
 62
     0
 10
1616.401406448992
 20
-246.05130354212361
 30
0.0
 40
2.5
  1
450
  0
ENDBLK
  5
D30
  8
0
  0
BLOCK
  8
0
  2
*U121
 70
     1
 10
0.0
 20
0.0
 30
0.0
  3
*U121
  1

  0
TEXT
  5
D32
  8
0
 62
     0
 10
1900.543993846376
 20
381.37466231426959
 30
0.0
 40
2.5
  1
1051,25
 50
90.0
  0
ENDBLK
  5
D34
  8
0
  0
BLOCK
  8
0
  2
*U122
 70
     1
 10
0.0
 20
0.0
 30
0.0
  3
*U122
  1

  0
TEXT
  5
D36
  8
0
 62
     0
 10
1867.437300858413
 20
384.11275755236483
 30
0.0
 40
2.5
  1
1050
 50
90.0
  0
ENDBLK
  5
D38
  8
0
  0
BLOCK
  8
0
  2
*U123
 70
     1
 10
0.0
 20
0.0
 30
0.0
  3
*U123
  1

  0
TEXT
  5
D3A
  8
0
 62
     0
 10
2218.2389739916689
 20
995.3303464195759
 30
0.0
 40
2.5
  1
340
  0
ENDBLK
  5
D3C
  8
0
  0
BLOCK
  8
0
  2
*U124
 70
     1
 10
0.0
 20
0.0
 30
0.0
  3
*U124
  1

  0
TEXT
  5
D47
  8
0
 62
     0
 10
2218.4770692297661
 20
412.41571601554728
 30
0.0
 40
2.5
  1
310
  0
ENDBLK
  5
D49
  8
0
  0
BLOCK
  8
0
  2
*U125
 70
     1
 10
0.0
 20
0.0
 30
0.0
  3
*U125
  1

  0
TEXT
  5
D54
  8
0
 62
     0
 10
2218.2389739916689
 20
362.38187701542302
 30
0.0
 40
2.5
  1
280
  0
ENDBLK
  5
D56
  8
0
  0
BLOCK
  8
0
  2
*U126
 70
     1
 10
0.0
 20
0.0
 30
0.0
  3
*U126
  1

  0
TEXT
  5
D61
  8
0
 62
     0
 10
2218.2389739916689
 20
356.00741938279413
 30
0.0
 40
2.5
  1
280
  0
ENDBLK
  5
D63
  8
0
  0
BLOCK
  8
0
  2
*U127
 70
     1
 10
0.0
 20
0.0
 30
0.0
  3
*U127
  1

  0
TEXT
  5
D65
  8
0
 62
     0
 10
2218.4770692297652
 20
400.60864768134968
 30
0.0
 40
2.5
  1
310
  0
ENDBLK
  5
D67
  8
0
  0
BLOCK
  8
0
  2
*U128
 70
     1
 10
0.0
 20
0.0
 30
0.0
  3
*U128
  1

  0
TEXT
  5
D69
  8
0
 62
     0
 10
1985.407619461339
 20
186.00561469522191
 30
0.0
 40
2.5
  1
224
 50
90.0
  0
ENDBLK
  5
D6B
  8
0
  0
BLOCK
  8
0
  2
*U129
 70
     1
 10
0.0
 20
0.0
 30
0.0
  3
*U129
  1

  0
TEXT
  5
D6D
  8
0
 62
     0
 10
1962.9554753799091
 20
186.00561469522191
 30
0.0
 40
2.5
  1
264
 50
90.0
  0
ENDBLK
  5
D6F
  8
0
  0
BLOCK
  8
0
  2
*U130
 70
     1
 10
0.0
 20
0.0
 30
0.0
  3
*U130
  1

  0
TEXT
  5
D71
  8
0
 62
     0
 10
2159.7178860609251
 20
-51.803909114301788
 30
0.0
 40
2.5
  1
54
 50
90.0
  0
ENDBLK
  5
D73
  8
0
  0
BLOCK
  8
0
  2
*U131
 70
     1
 10
0.0
 20
0.0
 30
0.0
  3
*U131
  1

  0
TEXT
  5
D75
  8
0
 62
     0
 10
2219.3699263726212
 20
-114.1380066376895
 30
0.0
 40
2.5
  1
74
  0
ENDBLK
  5
D77
  8
0
  0
BLOCK
  8
0
  2
*U132
 70
     1
 10
0.0
 20
0.0
 30
0.0
  3
*U132
  1

  0
TEXT
  5
D79
  8
0
 62
     0
 10
2488.464019275933
 20
384.11275755236488
 30
0.0
 40
2.5
  1
1050
 50
90.0
  0
ENDBLK
  5
D7B
  8
0
  0
BLOCK
  8
0
  2
*U133
 70
     1
 10
0.0
 20
0.0
 30
0.0
  3
*U133
  1

  0
TEXT
  5
DB6
  8
0
 62
     0
 10
938.72341033224063
 20
778.49370993331706
 30
0.0
 40
2.5
  1
15
 50
90.0
  0
ENDBLK
  5
DB8
  8
0
  0
BLOCK
  8
0
  2
*U134
 70
     1
 10
0.0
 20
0.0
 30
0.0
  3
*U134
  1

  0
TEXT
  5
DBA
  8
0
 62
     0
 10
790.13122927711288
 20
780.4837160740251
 30
0.0
 40
2.5
  1
R8
 50
32.406387676189219
  0
ENDBLK
  5
DBC
  8
0
  0
BLOCK
  8
0
  2
*U135
 70
     1
 10
0.0
 20
0.0
 30
0.0
  3
*U135
  1

  0
TEXT
  5
DBE
  8
0
 62
     0
 10
845.46987762576225
 20
579.82679976910003
 30
0.0
 40
2.5
  1
80
  0
ENDBLK
  5
DC0
  8
0
  0
BLOCK
  8
0
  2
*U136
 70
     1
 10
0.0
 20
0.0
 30
0.0
  3
*U136
  1

  0
TEXT
  5
DC2
  8
0
 62
     0
 10
691.26595480918115
 20
630.03349044485697
 30
0.0
 40
2.5
  1
R8
 50
306.76797913382109
  0
ENDBLK
  5
DC4
  8
0
  0
ENDSEC
  0
SECTION
  2
ENTITIES
  0
LINE
  5
87
  8
0
 10
677.493687149572
 20
913.27942421903117
 30
0.0
 11
1017.493687149572
 21
913.27942421903117
 31
0.0
  0
LINE
  5
88
  8
0
 10
1017.493687149572
 20
913.27942421903117
 30
0.0
 11
1017.493687149572
 21
913.27942421903117
 31
0.0
  0
LINE
  5
89
  8
0
 10
1017.493687149572
 20
913.27942421903117
 30
0.0
 11
1017.493687149572
 21
-136.7205757809688
 31
0.0
  0
LINE
  5
8A
  8
0
 10
1017.493687149572
 20
-136.7205757809688
 30
0.0
 11
1017.493687149572
 21
-136.7205757809688
 31
0.0
  0
LINE
  5
8B
  8
0
 10
1017.493687149572
 20
-136.7205757809688
 30
0.0
 11
677.493687149572
 21
-136.7205757809688
 31
0.0
  0
LINE
  5
8C
  8
0
 10
677.493687149572
 20
-136.7205757809688
 30
0.0
 11
677.493687149572
 21
-136.7205757809688
 31
0.0
  0
LINE
  5
8D
  8
0
 10
677.493687149572
 20
-136.7205757809688
 30
0.0
 11
677.493687149572
 21
913.27942421903117
 31
0.0
  0
LINE
  5
8F
  8
0
 10
677.493687149572
 20
-270.57621284005972
 30
0.0
 11
1017.493687149572
 21
-270.57621284005972
 31
0.0
  0
LINE
  5
90
  8
0
 10
1017.493687149572
 20
-270.57621284005972
 30
0.0
 11
1017.493687149572
 21
-270.57621284005972
 31
0.0
  0
LINE
  5
92
  8
0
 10
1017.493687149572
 20
-270.57621284005972
 30
0.0
 11
1017.493687149572
 21
-702.95254718801607
 31
0.0
  0
LINE
  5
CC
  8
0
 10
785.493687149572
 20
-720.57621284005984
 30
0.0
 11
678.25353254365859
 21
-702.95254718801607
 31
0.0
  0
LINE
  5
D0
  8
0
 10
678.25353254365859
 20
-702.95254718801607
 30
0.0
 11
677.493687149572
 21
-702.82767548094102
 31
0.0
  0
LINE
  5
D3
  8
0
 10
677.49368714957166
 20
-702.82767548094102
 30
0.0
 11
677.493687149572
 21
-270.57621284005972
 31
0.0
  0
LINE
  5
D4
  8
0
 10
909.493687149572
 20
-720.57621284005984
 30
0.0
 11
1016.7338417554849
 21
-702.95254718801607
 31
0.0
  0
LINE
  5
D5
  8
0
 10
1016.7338417554849
 20
-702.95254718801607
 30
0.0
 11
1017.493687149572
 21
-702.82767548094102
 31
0.0
  0
LINE
  5
D8
  8
0
 10
909.493687149572
 20
-720.57621284005984
 30
0.0
 11
785.49368714957211
 21
-720.57621284005984
 31
0.0
  0
LINE
  5
DD
  8
0
 10
677.493687149572
 20
913.27942421903117
 30
0.0
 11
677.493687149572
 21
913.27942421903117
 31
0.0
  0
LINE
  5
F4
  8
0
 10
785.493687149572
 20
913.27942421903117
 30
0.0
 11
677.493687149572
 21
652.27942421903106
 31
0.0
  0
LINE
  5
F5
  8
0
 10
909.493687149572
 20
913.27942421903117
 30
0.0
 11
1017.493687149572
 21
652.27942421903106
 31
0.0
  0
POLYLINE
  5
1E7
  8
0
 66
     1
 10
0.0
 20
0.0
 30
0.0
 70
     1
  0
VERTEX
  5
9EA
  8
0
 10
887.59368714957213
 20
795.77942421903117
 30
0.0
  0
VERTEX
  5
9EB
  8
0
 10
887.59368714957168
 20
880.27942421903094
 30
0.0
 42
0.414213562373095
  0
VERTEX
  5
9EC
  8
0
 10
879.59368714957168
 20
888.27942421903094
 30
0.0
  0
VERTEX
  5
9ED
  8
0
 10
815.39368714957163
 20
888.27942421903117
 30
0.0
 42
0.4142135623730958
  0
VERTEX
  5
9EE
  8
0
 10
807.39368714957163
 20
880.27942421903117
 30
0.0
  0
VERTEX
  5
9EF
  8
0
 10
807.39368714957163
 20
795.77942421903117
 30
0.0
 42
0.4142135623730946
  0
VERTEX
  5
9F0
  8
0
 10
815.39368714957163
 20
787.77942421903106
 30
0.0
  0
VERTEX
  5
9F1
  8
0
 10
879.59368714957213
 20
787.77942421903106
 30
0.0
 42
0.4142135623730966
  0
SEQEND
  5
9F2
  8
0
  0
POLYLINE
  5
1E9
  8
0
 66
     1
 10
0.0
 20
0.0
 30
0.0
 70
     1
  0
VERTEX
  5
9F3
  8
0
 10
873.09368714957156
 20
879.52942421903117
 30
0.0
  0
VERTEX
  5
9F4
  8
0
 10
873.09368714957156
 20
796.52942421903094
 30
0.0
 42
-0.4142135623730953
  0
VERTEX
  5
9F5
  8
0
 10
870.09368714957156
 20
793.52942421903117
 30
0.0
  0
VERTEX
  5
9F6
  8
0
 10
824.89368714957243
 20
793.52942421903117
 30
0.0
 42
-0.414213562373095
  0
VERTEX
  5
9F7
  8
0
 10
821.8936871495722
 20
796.52942421903094
 30
0.0
  0
VERTEX
  5
9F8
  8
0
 10
821.89368714957186
 20
879.52942421903117
 30
0.0
 42
-0.4142135623730951
  0
VERTEX
  5
9F9
  8
0
 10
824.89368714957163
 20
882.52942421903094
 30
0.0
  0
VERTEX
  5
9FA
  8
0
 10
870.09368714957156
 20
882.52942421903094
 30
0.0
 42
-0.4142135623730961
  0
SEQEND
  5
9FB
  8
0
  0
POLYLINE
  5
1EF
  8
0
 66
     1
 10
0.0
 20
0.0
 30
0.0
 70
     1
  0
VERTEX
  5
9FC
  8
0
 10
887.49368714957211
 20
755.02942421903094
 30
0.0
  0
VERTEX
  5
9FD
  8
0
 10
887.49368714957211
 20
670.02942421903094
 30
0.0
 42
-0.4142135623730953
  0
VERTEX
  5
9FE
  8
0
 10
879.49368714957211
 20
662.02942421903083
 30
0.0
  0
VERTEX
  5
9FF
  8
0
 10
815.49368714957166
 20
662.02942421903083
 30
0.0
 42
-0.4142135623730951
  0
VERTEX
  5
A00
  8
0
 10
807.49368714957166
 20
670.02942421903094
 30
0.0
  0
VERTEX
  5
A01
  8
0
 10
807.49368714957188
 20
755.02942421903094
 30
0.0
 42
-0.414213562373095
  0
VERTEX
  5
A02
  8
0
 10
815.49368714957188
 20
763.02942421903094
 30
0.0
  0
VERTEX
  5
A03
  8
0
 10
879.49368714957211
 20
763.02942421903094
 30
0.0
 42
-0.4142135623730943
  0
SEQEND
  5
A04
  8
0
  0
POLYLINE
  5
1F0
  8
0
 66
     1
 10
0.0
 20
0.0
 30
0.0
 70
     1
  0
VERTEX
  5
A05
  8
0
 10
798.39368714957163
 20
660.27942421903083
 30
0.0
  0
VERTEX
  5
A06
  8
0
 10
798.39368714957186
 20
764.77942421903094
 30
0.0
 42
-0.4142135623730944
  0
VERTEX
  5
A07
  8
0
 10
806.39368714957209
 20
772.77942421903094
 30
0.0
  0
VERTEX
  5
A08
  8
0
 10
888.59368714957202
 20
772.7794242190314
 30
0.0
 42
-0.4142135623730958
  0
VERTEX
  5
A09
  8
0
 10
896.59368714957213
 20
764.7794242190314
 30
0.0
  0
VERTEX
  5
A0A
  8
0
 10
896.59368714957213
 20
660.27942421903106
 30
0.0
 42
-0.4142135623730946
  0
VERTEX
  5
A0B
  8
0
 10
888.59368714957202
 20
652.27942421903106
 30
0.0
  0
VERTEX
  5
A0C
  8
0
 10
806.39368714957163
 20
652.27942421903083
 30
0.0
 42
-0.4142135623730961
  0
SEQEND
  5
A0D
  8
0
  0
POLYLINE
  5
1F7
  8
0
 66
     1
 10
0.0
 20
0.0
 30
0.0
 70
     1
  0
VERTEX
  5
A0E
  8
0
 10
983.99368714957188
 20
601.27942421903106
 30
0.0
  0
VERTEX
  5
A0F
  8
0
 10
983.99368714957245
 20
336.27942421903123
 30
0.0
 42
-0.4142135623730951
  0
VERTEX
  5
A10
  8
0
 10
980.99368714957245
 20
333.27942421903123
 30
0.0
  0
VERTEX
  5
A11
  8
0
 10
713.993687149572
 20
333.27942421903123
 30
0.0
 42
-0.4142135623730951
  0
VERTEX
  5
A12
  8
0
 10
710.993687149572
 20
336.27942421903123
 30
0.0
  0
VERTEX
  5
A13
  8
0
 10
710.993687149572
 20
601.2794242190314
 30
0.0
 42
-0.4142135623730951
  0
VERTEX
  5
A14
  8
0
 10
713.993687149572
 20
604.27942421903117
 30
0.0
  0
VERTEX
  5
A15
  8
0
 10
980.993687149572
 20
604.27942421903117
 30
0.0
 42
-0.4142135623730946
  0
SEQEND
  5
A16
  8
0
  0
POLYLINE
  5
1F8
  8
0
 66
     1
 10
0.0
 20
0.0
 30
0.0
 70
     1
  0
VERTEX
  5
A17
  8
0
 10
988.99368714957166
 20
320.27942421903123
 30
0.0
  0
VERTEX
  5
A18
  8
0
 10
705.99368714957166
 20
320.27942421903123
 30
0.0
 42
-0.4142135623730951
  0
VERTEX
  5
A19
  8
0
 10
697.99368714957166
 20
328.27942421903123
 30
0.0
  0
VERTEX
  5
A1A
  8
0
 10
697.99368714957211
 20
609.27942421903106
 30
0.0
 42
-0.414213562373095
  0
VERTEX
  5
A1B
  8
0
 10
705.99368714957211
 20
617.27942421903106
 30
0.0
  0
VERTEX
  5
A1C
  8
0
 10
988.99368714957166
 20
617.27942421903106
 30
0.0
 42
-0.4142135623730951
  0
VERTEX
  5
A1D
  8
0
 10
996.99368714957166
 20
609.27942421903106
 30
0.0
  0
VERTEX
  5
A1E
  8
0
 10
996.99368714957166
 20
328.27942421903123
 30
0.0
 42
-0.4142135623730951
  0
SEQEND
  5
A1F
  8
0
  0
LINE
  5
290
  8
0
 10
2391.4532597059551
 20
913.27942421903117
 30
0.0
 11
2391.4532597059551
 21
-136.7205757809688
 31
0.0
  0
LINE
  5
291
  8
0
 10
2391.4532597059551
 20
-136.7205757809688
 30
0.0
 11
2051.4532597059542
 21
-136.7205757809688
 31
0.0
  0
LINE
  5
292
  8
0
 10
2051.4532597059542
 20
-136.7205757809688
 30
0.0
 11
2051.4532597059542
 21
913.27942421903117
 31
0.0
  0
LINE
  5
293
  8
0
 10
2051.4532597059542
 20
913.27942421903117
 30
0.0
 11
2391.4532597059551
 21
913.27942421903117
 31
0.0
  0
LINE
  5
2F1
  8
0
 10
1412.6156921632769
 20
913.27942421903117
 30
0.0
 11
1412.6156921632769
 21
895.27942421903106
 31
0.0
  0
POLYLINE
  5
2F9
  8
0
 66
     1
 10
0.0
 20
0.0
 30
0.0
 70
     1
  0
VERTEX
  5
A24
  8
0
 10
1412.6156921632769
 20
-118.7205757809688
 30
0.0
  0
VERTEX
  5
A25
  8
0
 10
1826.615692163278
 20
-118.7205757809688
 30
0.0
  0
VERTEX
  5
A26
  8
0
 10
1826.615692163278
 20
-136.7205757809688
 30
0.0
  0
VERTEX
  5
A27
  8
0
 10
1412.6156921632769
 20
-136.7205757809688
 30
0.0
  0
SEQEND
  5
A28
  8
0
  0
POLYLINE
  5
2FD
  8
0
 66
     1
 10
0.0
 20
0.0
 30
0.0
 70
     1
1001
ACAD
1000
ASC_BOUNDS
1002
{
1070
    19
1005
35F
1002
}
  0
VERTEX
  5
A29
  8
0
 10
1844.615692163278
 20
-136.7205757809688
 30
0.0
  0
VERTEX
  5
A2A
  8
0
 10
1826.615692163278
 20
-136.7205757809688
 30
0.0
  0
VERTEX
  5
A2B
  8
0
 10
1826.615692163278
 20
-76.720575780968801
 30
0.0
  0
VERTEX
  5
A2C
  8
0
 10
1844.615692163278
 20
-76.720575780968815
 30
0.0
  0
SEQEND
  5
A2D
  8
0
  0
POLYLINE
  5
301
  8
0
 66
     1
 10
0.0
 20
0.0
 30
0.0
 70
     1
1001
ACAD
1000
ASC_BOUNDS
1002
{
1070
    19
1005
35F
1002
}
  0
VERTEX
  5
A2E
  8
0
 10
1826.615692163278
 20
77.279424219031199
 30
0.0
  0
VERTEX
  5
A2F
  8
0
 10
1840.6156921632789
 20
77.279424219031171
 30
0.0
  0
VERTEX
  5
A30
  8
0
 10
1840.6156921632789
 20
57.279424219031199
 30
0.0
  0
VERTEX
  5
A31
  8
0
 10
1844.615692163278
 20
57.279424219031199
 30
0.0
  0
VERTEX
  5
A32
  8
0
 10
1844.615692163278
 20
-22.720575780968801
 30
0.0
  0
VERTEX
  5
A33
  8
0
 10
1826.615692163278
 20
-22.720575780968801
 30
0.0
  0
SEQEND
  5
A34
  8
0
  0
POLYLINE
  5
307
  8
0
 66
     1
 10
0.0
 20
0.0
 30
0.0
 70
     1
1001
ACAD
1000
ASC_BOUNDS
1002
{
1070
    19
1005
35F
1002
}
  0
VERTEX
  5
A35
  8
0
 10
1402.6156921632769
 20
320.27942421903123
 30
0.0
  0
VERTEX
  5
A36
  8
0
 10
1394.6156921632769
 20
320.27942421903123
 30
0.0
  0
VERTEX
  5
A37
  8
0
 10
1394.6156921632769
 20
-136.7205757809688
 30
0.0
  0
VERTEX
  5
A38
  8
0
 10
1412.6156921632769
 20
-136.7205757809688
 30
0.0
  0
VERTEX
  5
A39
  8
0
 10
1412.6156921632769
 20
333.27942421903123
 30
0.0
  0
VERTEX
  5
A3A
  8
0
 10
1402.6156921632769
 20
333.27942421903123
 30
0.0
  0
SEQEND
  5
A3B
  8
0
  0
POLYLINE
  5
30D
  8
0
 66
     1
 10
0.0
 20
0.0
 30
0.0
 70
     1
1001
ACAD
1000
ASC_BOUNDS
1002
{
1070
    19
1005
35F
1002
}
  0
VERTEX
  5
A3C
  8
0
 10
1394.6156921632769
 20
652.27942421903106
 30
0.0
  0
VERTEX
  5
A3D
  8
0
 10
1399.6156921632769
 20
652.27942421903106
 30
0.0
  0
VERTEX
  5
A3E
  8
0
 10
1399.6156921632769
 20
662.02942421903083
 30
0.0
  0
VERTEX
  5
A3F
  8
0
 10
1412.6156921632769
 20
662.02942421903072
 30
0.0
  0
VERTEX
  5
A40
  8
0
 10
1412.6156921632769
 20
604.27942421903117
 30
0.0
  0
VERTEX
  5
A41
  8
0
 10
1402.6156921632769
 20
604.27942421903117
 30
0.0
  0
VERTEX
  5
A42
  8
0
 10
1402.6156921632769
 20
617.27942421903106
 30
0.0
  0
VERTEX
  5
A43
  8
0
 10
1394.6156921632769
 20
617.27942421903106
 30
0.0
  0
SEQEND
  5
A44
  8
0
  0
POLYLINE
  5
313
  8
0
 66
     1
 10
0.0
 20
0.0
 30
0.0
 70
     1
1001
ACAD
1000
ASC_BOUNDS
1002
{
1070
    19
1005
35F
1002
}
  0
VERTEX
  5
A45
  8
0
 10
1394.6156921632769
 20
772.7794242190314
 30
0.0
  0
VERTEX
  5
A46
  8
0
 10
1399.6156921632769
 20
772.77942421903151
 30
0.0
  0
VERTEX
  5
A47
  8
0
 10
1399.6156921632769
 20
763.0294242190314
 30
0.0
  0
VERTEX
  5
A48
  8
0
 10
1412.6156921632769
 20
763.0294242190314
 30
0.0
  0
VERTEX
  5
A49
  8
0
 10
1412.6156921632769
 20
793.52942421903117
 30
0.0
  0
VERTEX
  5
A4A
  8
0
 10
1399.6156921632769
 20
793.52942421903117
 30
0.0
  0
VERTEX
  5
A4B
  8
0
 10
1399.6156921632769
 20
787.77942421903106
 30
0.0
  0
VERTEX
  5
A4C
  8
0
 10
1394.6156921632769
 20
787.77942421903106
 30
0.0
  0
SEQEND
  5
A4D
  8
0
  0
POLYLINE
  5
31D
  8
0
 66
     1
 10
0.0
 20
0.0
 30
0.0
 70
     1
1001
ACAD
1000
ASC_BOUNDS
1002
{
1070
    19
1005
35F
1002
}
  0
VERTEX
  5
A4E
  8
0
 10
1394.6156921632769
 20
888.27942421903117
 30
0.0
  0
VERTEX
  5
A4F
  8
0
 10
1399.6156921632769
 20
888.27942421903117
 30
0.0
  0
VERTEX
  5
A50
  8
0
 10
1399.6156921632769
 20
882.52942421903094
 30
0.0
  0
VERTEX
  5
A51
  8
0
 10
1412.6156921632769
 20
882.52942421903094
 30
0.0
  0
VERTEX
  5
A52
  8
0
 10
1412.6156921632769
 20
913.27942421903117
 30
0.0
  0
VERTEX
  5
A53
  8
0
 10
1394.6156921632769
 20
913.27942421903117
 30
0.0
  0
SEQEND
  5
A54
  8
0
  0
POLYLINE
  5
326
  8
0
 66
     1
 10
0.0
 20
0.0
 30
0.0
 70
     1
  0
VERTEX
  5
A55
  8
0
 10
1412.6156921632769
 20
895.27942421903106
 30
0.0
  0
VERTEX
  5
A56
  8
0
 10
1412.6156921632769
 20
913.27942421903117
 30
0.0
  0
VERTEX
  5
A57
  8
0
 10
1826.615692163278
 20
913.27942421903117
 30
0.0
  0
VERTEX
  5
A58
  8
0
 10
1826.615692163278
 20
895.27942421903106
 30
0.0
  0
SEQEND
  5
A59
  8
0
  0
POLYLINE
  5
32B
  8
0
 66
     1
 10
0.0
 20
0.0
 30
0.0
 70
     1
1001
ACAD
1000
ASC_BOUNDS
1002
{
1070
    19
1005
35F
1002
}
  0
VERTEX
  5
A5A
  8
0
 10
1826.615692163278
 20
301.27942421903123
 30
0.0
  0
VERTEX
  5
A5B
  8
0
 10
1826.615692163278
 20
895.27942421903106
 30
0.0
  0
VERTEX
  5
A5C
  8
0
 10
1826.615692163278
 20
913.27942421903117
 30
0.0
  0
VERTEX
  5
A5D
  8
0
 10
1844.6156921632739
 20
913.27942421903117
 30
0.0
  0
VERTEX
  5
A5E
  8
0
 10
1844.615692163276
 20
321.27942421903123
 30
0.0
  0
VERTEX
  5
A5F
  8
0
 10
1840.6156921632789
 20
321.27942421903123
 30
0.0
  0
VERTEX
  5
A60
  8
0
 10
1840.615692163278
 20
301.27942421903123
 30
0.0
  0
SEQEND
  5
A61
  8
0
  0
INSERT
  5
35F
  8
0
  6
CONTINUOUS
  2
*X77
 10
0.0
 20
0.0
 30
0.0
1001
ACAD
1000
HATCH
1002
{
1070
    19
1000
ANSI31
1040
1.0
1040
0.0
1000
ASC_BOUNDS
1070
     7
1070
     1
1070
     1
1005
2FD
1070
     1
1070
     1
1005
301
1070
     1
1070
     1
1005
32B
1070
     1
1070
     1
1005
307
1070
     1
1070
     1
1005
30D
1070
     1
1070
     1
1005
313
1070
     1
1070
     1
1005
31D
1000
ASC_SEEDPOINT
1011
1402.5352570392661
1021
0.0
1031
0.0
1021
898.14968868285905
1031
0.0
1000
R14_HATCH_DATA
1000
35F
1011
1.0
1021
0.0
1031
0.0
1021
0.0
1031
0.0
1011
0.0
1021
0.0
1031
0.0
1021
1.0
1031
0.0
1011
0.0
1021
0.0
1031
0.0
1021
0.0
1031
1.0
1040
0.0
1010
0.0
1020
0.0
1030
1.0
1000
ANSI31
1070
     0
1070
     1
1071
        7
1071
        7
1070
     0
1070
     1
1071
        6
1040
1394.6156921632769
1040
888.27942421903117
1040
1399.6156921632769
1040
888.27942421903117
1040
1399.6156921632769
1040
882.52942421903094
1040
1412.6156921632769
1040
882.52942421903094
1040
1412.6156921632769
1040
913.27942421903117
1040
1394.6156921632769
1040
913.27942421903117
1071
        1
1005
31D
1071
        7
1070
     0
1070
     1
1071
        8
1040
1412.6156921632769
1040
793.52942421903117
1040
1399.6156921632769
1040
793.52942421903117
1040
1399.6156921632769
1040
787.77942421903106
1040
1394.6156921632769
1040
787.77942421903106
1040
1394.6156921632769
1040
772.7794242190314
1040
1399.6156921632769
1040
772.77942421903151
1040
1399.6156921632769
1040
763.0294242190314
1040
1412.6156921632769
1040
763.0294242190314
1071
        1
1005
313
1071
        7
1070
     0
1070
     1
1071
        8
1040
1412.6156921632769
1040
662.02942421903072
1040
1399.6156921632769
1040
662.02942421903083
1040
1399.6156921632769
1040
652.27942421903106
1040
1394.6156921632769
1040
652.27942421903106
1040
1394.6156921632769
1040
617.27942421903106
1040
1402.6156921632769
1040
617.27942421903106
1040
1402.6156921632769
1040
604.27942421903117
1040
1412.6156921632769
1040
604.27942421903117
1071
        1
1005
30D
1071
        7
1070
     0
1070
     1
1071
        6
1040
1394.6156921632769
1040
-136.7205757809688
1040
1412.6156921632769
1040
-136.720575780969
1040
1412.6156921632769
1040
333.27942421903111
1040
1402.6156921632769
1040
333.27942421903128
1040
1402.6156921632769
1040
320.27942421903123
1040
1394.6156921632769
1040
320.27942421903123
1071
        1
1005
307
1071
        7
1070
     0
1070
     1
1071
        7
1040
1826.615692163278
1040
301.279424219031
1040
1840.615692163278
1040
301.279424219031
1040
1840.6156921632789
1040
321.27942421903123
1040
1844.615692163276
1040
321.27942421903123
1040
1844.6156921632739
1040
913.27942421903117
1040
1826.615692163278
1040
913.27942421903117
1040
1826.615692163278
1040
895.27942421903106
1071
        1
1005
32B
1071
        7
1070
     0
1070
     1
1071
        6
1040
1826.615692163278
1040
-22.72057578096895
1040
1844.615692163278
1040
-22.720575780968829
1040
1844.615692163278
1040
57.279424219031277
1040
1840.6156921632789
1040
57.279424219031171
1040
1840.6156921632789
1040
77.279424219031171
1040
1826.615692163278
1040
77.279424219031284
1071
        1
1005
301
1071
        7
1070
     0
1070
     1
1071
        4
1040
1844.615692163278
1040
-76.720575780968943
1040
1826.615692163278
1040
-76.720575780968716
1040
1826.615692163278
1040
-136.7205757809688
1040
1844.615692163278
1040
-136.7205757809688
1071
        1
1005
2FD
1070
     0
1070
     1
1040
0.0
1040
1.0
1070
     0
1070
     1
1040
0.7853981633974483
1040
0.0
1040
0.0
1040
-2.2450640302672871
1040
2.2450640302672871
1070
     0
1040
2.1867440542555161
1071
        7
1040
1402.5352570392661
1040
898.14968868285905
1040
0.0
1040
1409.0992877194551
1040
769.1317887426984
1040
0.0
1040
1409.0992877194551
1040
642.30062923347293
1040
0.0
1040
1395.971215744346
1040
263.99391006452419
1040
0.0
1040
1833.5735972234161
1040
622.61993380873525
1040
0.0
1040
1833.5735972234161
1040
25.63880560894086
1040
0.0
1040
1837.949624753363
1040
-96.818860419885851
1040
0.0
1002
}
  0
INSERT
  5
368
  8
0
  6
CONTINUOUS
  2
*X78
 10
0.0
 20
0.0
 30
0.0
1001
ACAD
1000
HATCH
1002
{
1070
    19
1000
ANSI31
1040
1.0
1040
1.5707963267948959
1000
R14_HATCH_DATA
1000
368
1011
1.0
1021
0.0
1031
0.0
1021
0.0
1031
0.0
1011
0.0
1021
0.0
1031
0.0
1021
1.0
1031
0.0
1011
0.0
1021
0.0
1031
0.0
1021
0.0
1031
1.0
1040
0.0
1010
0.0
1020
0.0
1030
1.0
1000
ANSI31
1070
     0
1070
     0
1071
        2
1071
        7
1070
     0
1070
     1
1071
        4
1040
1826.615692163278
1040
913.27942421903094
1040
1412.6156921632769
1040
913.27942421903117
1040
1412.6156921632769
1040
895.27942421903106
1040
1826.615692163278
1040
895.27942421903106
1071
        0
1071
        7
1070
     0
1070
     1
1071
        4
1040
1826.615692163278
1040
-118.7205757809688
1040
1412.6156921632769
1040
-118.7205757809688
1040
1412.6156921632769
1040
-136.7205757809688
1040
1826.615692163278
1040
-136.7205757809688
1071
        0
1070
     0
1070
     1
1040
1.5707963267948959
1040
1.0
1070
     0
1070
     1
1040
2.3561944901923439
1040
0.0
1040
0.0
1040
-2.2450640302672871
1040
-2.2450640302672871
1070
     0
1040
2.1867440542555161
1071
        2
1040
1627.900483766354
1040
902.52317585399385
1040
0.0
1040
1577.5762096308929
1040
-127.43327692709219
1040
0.0
1002
}
  0
DIMENSION
  5
369
  8
0
  2
*D8
 10
1017.493687149572
 20
1099.8046372288611
 30
0.0
 11
847.49368714957188
 21
1101.6796372288611
 31
0.0
 70
     0
 13
677.493687149572
 23
913.27942421903117
 33
0.0
 14
1017.493687149572
 24
913.27942421903117
 34
0.0
  0
DIMENSION
  5
381
  8
0
  2
*D9
 10
785.493687149572
 20
998.42599511604828
 30
0.0
 11
731.493687149572
 21
1000.3009951160481
 31
0.0
 70
     0
 13
677.493687149572
 23
913.27942421903117
 33
0.0
 14
785.493687149572
 24
913.27942421903117
 34
0.0
  0
DIMENSION
  5
399
  8
0
  2
*D10
 10
887.59368714957168
 20
953.67300378105392
 30
0.0
 11
847.49368714957166
 21
955.75633711438707
 31
0.0
 70
     0
 13
807.39368714957163
 23
880.27942421903117
 33
0.0
 14
887.59368714957168
 24
880.27942421903094
 34
0.0
  0
DIMENSION
  5
3B1
  8
0
  2
*D11
 10
712.89276450053683
 20
787.77942421903106
 30
0.0
 11
710.80943116720323
 21
838.02942421903106
 31
0.0
 70
     0
 13
815.39368714957163
 23
888.27942421903117
 33
0.0
 14
815.39368714957163
 24
787.77942421903106
 34
0.0
 50
90.0
  0
DIMENSION
  5
3C9
  8
0
  2
*D12
 10
873.09368714957156
 20
926.43873761035525
 30
0.0
 11
847.49368714957166
 21
928.52207094368828
 31
0.0
 70
     0
 13
821.89368714957186
 23
879.52942421903117
 33
0.0
 14
873.09368714957156
 24
879.52942421903094
 34
0.0
  0
DIMENSION
  5
3E1
  8
0
  2
*D13
 10
918.11977280793496
 20
793.52942421903117
 30
0.0
 11
916.24477280793485
 21
838.02942421903106
 31
0.0
 70
     0
 13
870.09368714957156
 23
882.52942421903094
 33
0.0
 14
870.09368714957156
 24
793.52942421903117
 34
0.0
 50
90.0
  0
DIMENSION
  5
3F9
  8
0
  2
*D14
 10
1054.370074417347
 20
652.27942421903106
 30
0.0
 11
1052.495074417347
 21
782.77942421903117
 31
0.0
 70
     0
 13
1017.493687149572
 23
913.27942421903117
 33
0.0
 14
1017.493687149572
 24
652.27942421903106
 34
0.0
 50
90.0
  0
DIMENSION
  5
411
  8
0
  2
*D15
 10
715.44746402454973
 20
652.27942421903094
 30
0.0
 11
713.36413069121636
 21
712.52942421903094
 31
0.0
 70
     0
 13
806.39368714957209
 23
772.77942421903094
 33
0.0
 14
806.39368714957163
 24
652.27942421903083
 34
0.0
 50
90.0
  0
DIMENSION
  5
429
  8
0
  2
*D16
 10
763.13506109606351
 20
662.02942421903094
 30
0.0
 11
761.26006109606317
 21
712.52942421903106
 31
0.0
 70
     0
 13
815.49368714957188
 23
763.02942421903094
 33
0.0
 14
815.49368714957166
 24
662.02942421903083
 34
0.0
 50
90.0
  0
DIMENSION
  5
441
  8
0
  2
*D17
 10
896.59368714957213
 20
546.01003629624483
 30
0.0
 11
847.49368714957188
 21
548.09336962957821
 31
0.0
 70
     0
 13
798.39368714957163
 23
660.27942421903083
 33
0.0
 14
896.59368714957213
 24
660.27942421903106
 34
0.0
  0
DIMENSION
  5
459
  8
0
  2
*D18
 10
887.49368714957188
 20
579.20179976910003
 30
0.0
 11
847.49368714957166
 21
581.07679976910003
 31
0.0
 70
     0
 13
807.49368714957154
 23
670.02942421903094
 33
0.0
 14
887.49368714957188
 24
670.02942421903094
 34
0.0
  0
DIMENSION
  5
471
  8
0
  2
*D19
 10
1057.047480190442
 20
333.27942421903123
 30
0.0
 11
1055.172480190442
 21
468.77942421903128
 31
0.0
 70
     0
 13
980.993687149572
 23
604.27942421903117
 33
0.0
 14
980.99368714957245
 24
333.27942421903123
 34
0.0
 50
90.0
  0
DIMENSION
  5
489
  8
0
  2
*D20
 10
1124.807930190138
 20
617.27942421903106
 30
0.0
 11
1122.932930190138
 21
468.77942421903128
 31
0.0
 70
     0
 13
988.99368714957166
 23
320.27942421903123
 33
0.0
 14
988.99368714957166
 24
617.27942421903106
 34
0.0
 50
90.0
  0
DIMENSION
  5
4A1
  8
0
  2
*D21
 10
983.99368714957245
 20
276.90058847629371
 30
0.0
 11
847.49368714957234
 21
278.77558847629371
 31
0.0
 70
     0
 13
710.993687149572
 23
336.27942421903123
 33
0.0
 14
983.99368714957245
 24
336.27942421903123
 34
0.0
  0
DIMENSION
  5
4B9
  8
0
  2
*D22
 10
996.99368714957166
 20
221.4799061757121
 30
0.0
 11
847.49368714957166
 21
223.3549061757121
 31
0.0
 70
     0
 13
697.99368714957166
 23
328.27942421903123
 33
0.0
 14
996.99368714957166
 24
328.27942421903123
 34
0.0
  0
DIMENSION
  5
4D1
  8
0
  2
*D23
 10
943.34708430208025
 20
617.27942421903106
 30
0.0
 11
941.47208430208036
 21
634.77942421903106
 31
0.0
 70
     0
 13
888.59368714957202
 23
652.27942421903106
 33
0.0
 14
988.99368714957166
 24
617.27942421903106
 34
0.0
 50
90.0
  0
DIMENSION
  5
4E9
  8
0
  2
*D24
 10
939.34841033224075
 20
772.77942421903151
 30
0.0
 11
937.47341033224041
 21
780.2794242190314
 31
0.0
 70
     0
 13
879.59368714957213
 23
787.77942421903106
 33
0.0
 14
888.59368714957202
 24
772.77942421903151
 34
0.0
 50
90.0
  0
DIMENSION
  5
501
  8
0
  2
*D25
 10
840.9010274735756
 20
913.27942421903117
 30
0.0
 11
839.02602747357514
 21
900.7794242190314
 31
0.0
 70
     0
 13
879.59368714957168
 23
888.27942421903094
 33
0.0
 14
1018.118687149572
 24
913.27942421903117
 34
0.0
 50
90.0
  0
DIMENSION
  5
519
  8
0
  2
*D26
 10
815.39368714957175
 20
795.77942421903117
 30
0.0
 11
792.22507190167926
 21
781.0725503812173
 31
0.0
 70
   132
 15
808.63954168493842
 25
791.49205684002311
 35
0.0
 40
0.0
1001
ACAD
1000
DSTYLE
1002
{
1070
   288
1070
     1
1002
}
  0
DIMENSION
  5
52B
  8
0
  2
*D27
 10
870.09368714957145
 20
796.52942421903106
 30
0.0
 11
861.11746581968941
 21
804.60099462585708
 31
0.0
 70
   132
 15
872.32443794384756
 25
794.5234952836405
 35
0.0
 40
0.0
1001
ACAD
1000
DSTYLE
1002
{
1070
   287
1070
     4
1070
   279
1070
     1
1070
   288
1070
     1
1002
}
  0
DIMENSION
  5
53B
  8
0
  2
*D28
 10
879.49368714957211
 20
670.02942421903094
 30
0.0
 11
863.35241790935777
 21
680.34435553201013
 31
0.0
 70
   132
 15
886.23479225626511
 25
665.72158230683044
 35
0.0
 40
0.0
1001
ACAD
1000
DSTYLE
1002
{
1070
   287
1070
     4
1070
   279
1070
     1
1070
   288
1070
     1
1002
}
  0
DIMENSION
  5
54C
  8
0
  2
*D29
 10
888.59368714957191
 20
764.77942421903106
 30
0.0
 11
861.06806487824065
 21
739.7032236427832
 31
0.0
 70
   132
 15
894.50754660310929
 25
770.16702724485253
 35
0.0
 40
0.0
1001
ACAD
1000
DSTYLE
1002
{
1070
   287
1070
     4
1070
   279
1070
     1
1070
   288
1070
     1
1002
}
  0
DIMENSION
  5
55C
  8
0
  2
*D30
 10
713.993687149572
 20
601.2794242190314
 30
0.0
 11
727.82880053974566
 21
588.50156027739968
 31
0.0
 70
   132
 15
711.78983185611276
 25
603.31486565653074
 35
0.0
 40
0.0
1001
ACAD
1000
DSTYLE
1002
{
1070
   287
1070
     4
1070
   279
1070
     1
1070
   288
1070
     1
1002
}
  0
DIMENSION
  5
56C
  8
0
  2
*D31
 10
705.99368714957222
 20
609.27942421903106
 30
0.0
 11
692.01232188008964
 21
627.99049289878872
 31
0.0
 70
   132
 15
701.20507914465611
 25
615.68795239445853
 35
0.0
 40
0.0
1001
ACAD
1000
DSTYLE
1002
{
1070
   288
1070
     1
1002
}
  0
DIMENSION
  5
57E
  8
0
  2
*D32
 10
1163.114390380671
 20
-136.7205757809688
 30
0.0
 11
1161.239390380671
 21
388.2794242190314
 31
0.0
 70
     0
 13
1017.493687149572
 23
913.27942421903117
 33
0.0
 14
1017.493687149572
 24
-136.7205757809688
 34
0.0
 50
90.0
  0
DIMENSION
  5
596
  8
0
  2
*D33
 10
1017.493687149572
 20
-223.41476640205829
 30
0.0
 11
847.49368714957188
 21
-221.53976640205829
 31
0.0
 70
     0
 13
677.493687149572
 23
-270.57621284005972
 33
0.0
 14
1017.493687149572
 24
-270.57621284005972
 34
0.0
  0
DIMENSION
  5
5AE
  8
0
  2
*D34
 10
599.78501007399984
 20
-270.57621284005972
 30
0.0
 11
597.91001007399984
 21
-495.57621284005961
 31
0.0
 70
     0
 13
785.49368714957211
 23
-720.57621284005984
 33
0.0
 14
677.493687149572
 24
-270.57621284005972
 34
0.0
 50
90.0
  0
DIMENSION
  5
5C6
  8
0
  2
*D35
 10
1120.508201320954
 20
-702.95254718801607
 30
0.0
 11
1118.4248679876209
 21
-711.76438001403778
 31
0.0
 70
     0
 13
909.493687149572
 23
-720.57621284005984
 33
0.0
 14
1016.7338417554849
 24
-702.95254718801607
 34
0.0
 50
90.0
  0
DIMENSION
  5
5DE
  8
0
  2
*D36
 10
909.493687149572
 20
-614.61172204077229
 30
0.0
 11
963.11376445252824
 21
-612.52838870743892
 31
0.0
 70
     0
 13
1016.7338417554849
 23
-702.95254718801607
 33
0.0
 14
909.493687149572
 24
-720.57621284005984
 34
0.0
  0
DIMENSION
  5
5F6
  8
0
  2
*D37
 10
909.493687149572
 20
969.98810434134873
 30
0.0
 11
847.49368714957188
 21
971.86310434134884
 31
0.0
 70
     0
 13
785.493687149572
 23
913.27942421903117
 33
0.0
 14
909.493687149572
 24
913.27942421903117
 34
0.0
  0
DIMENSION
  5
60E
  8
0
  2
*D38
 10
909.493687149572
 20
-674.69368859019664
 30
0.0
 11
847.49368714957188
 21
-672.81868859019664
 31
0.0
 70
     0
 13
785.49368714957211
 23
-720.57621284005984
 33
0.0
 14
909.493687149572
 24
-720.57621284005984
 34
0.0
  0
DIMENSION
  5
63E
  8
0
  2
*D40
 10
1412.6156921632769
 20
939.20118624690974
 30
0.0
 11
1403.6156921632769
 21
941.07618624690986
 31
0.0
 70
     0
 13
1394.6156921632769
 23
913.27942421903117
 33
0.0
 14
1412.6156921632769
 24
913.27942421903117
 34
0.0
  0
DIMENSION
  5
656
  8
0
  2
*D41
 10
1338.4181636234439
 20
888.27942421903117
 30
0.0
 11
1336.3348302901111
 21
897.86275755236466
 31
0.0
 70
     0
 13
1399.6156921632769
 23
882.52942421903094
 33
0.0
 14
1394.6156921632769
 24
888.27942421903117
 34
0.0
 50
90.0
  0
DIMENSION
  5
672
  8
0
  2
*D42
 10
1394.6156921632769
 20
812.99652403511493
 30
0.0
 11
1397.1156921632769
 21
814.87152403511482
 31
0.0
 70
     0
 13
1399.6156921632769
 23
793.52942421903117
 33
0.0
 14
1394.6156921632769
 24
787.77942421903106
 34
0.0
  0
DIMENSION
  5
68E
  8
0
  2
*D43
 10
1441.96472354762
 20
793.52942421903117
 30
0.0
 11
1440.08972354762
 21
838.02942421903106
 31
0.0
 70
     0
 13
1412.6156921632769
 23
882.52942421903094
 33
0.0
 14
1412.6156921632769
 24
793.52942421903117
 34
0.0
 50
90.0
  0
DIMENSION
  5
6A6
  8
0
  2
*D44
 10
1348.7669921305039
 20
763.0294242190314
 30
0.0
 11
1346.6836587971709
 21
767.90442421903163
 31
0.0
 70
     0
 13
1394.6156921632769
 23
772.7794242190314
 33
0.0
 14
1399.6156921632769
 24
763.0294242190314
 34
0.0
 50
90.0
  0
DIMENSION
  5
6BE
  8
0
  2
*D45
 10
1399.6156921632769
 20
686.71556389367561
 30
0.0
 11
1397.1156921632769
 21
688.59056389367572
 31
0.0
 70
     0
 13
1394.6156921632769
 23
652.27942421903106
 33
0.0
 14
1399.6156921632769
 24
662.02942421903083
 34
0.0
  0
DIMENSION
  5
6DA
  8
0
  2
*D46
 10
1429.900586932192
 20
662.02942421903072
 30
0.0
 11
1428.0255869321909
 21
712.52942421903106
 31
0.0
 70
     0
 13
1412.6156921632769
 23
763.0294242190314
 33
0.0
 14
1412.6156921632769
 24
662.02942421903072
 34
0.0
 50
90.0
  0
DIMENSION
  5
6F2
  8
0
  2
*D47
 10
1379.7445668412111
 20
604.27942421903117
 30
0.0
 11
1377.8695668412111
 21
610.77942421903106
 31
0.0
 70
     0
 13
1394.6156921632769
 23
617.27942421903106
 33
0.0
 14
1402.6156921632769
 24
604.27942421903117
 34
0.0
 50
90.0
  0
DIMENSION
  5
70A
  8
0
  2
*D48
 10
1402.6156921632769
 20
393.85948486116729
 30
0.0
 11
1398.615692163278
 21
395.73448486116729
 31
0.0
 70
     0
 13
1394.6156921632769
 23
320.27942421903123
 33
0.0
 14
1402.6156921632769
 24
333.27942421903123
 34
0.0
  0
DIMENSION
  5
73A
  8
0
  2
*D50
 10
1448.5797898372909
 20
604.27942421903117
 30
0.0
 11
1446.7047898372909
 21
468.77942421903128
 31
0.0
 70
     0
 13
1412.6156921632769
 23
333.27942421903123
 33
0.0
 14
1412.6156921632769
 24
604.27942421903117
 34
0.0
 50
90.0
  0
DIMENSION
  5
752
  8
0
  2
*D51
 10
1880.395467740535
 20
913.27942421903117
 30
0.0
 11
1878.5204677405341
 21
904.2794242190314
 31
0.0
 70
     0
 13
1825.7381804649219
 23
895.27942421903106
 33
0.0
 14
1826.615692163278
 24
913.27942421903117
 34
0.0
 50
90.0
  0
DIMENSION
  5
76A
  8
0
  2
*D52
 10
1844.6156921632739
 20
918.49022586530816
 30
0.0
 11
1835.615692163276
 21
920.36522586530816
 31
0.0
 70
     0
 13
1826.615692163278
 23
913.27942421903117
 33
0.0
 14
1844.6156921632739
 24
913.27942421903117
 34
0.0
  0
DIMENSION
  5
782
  8
0
  2
*D53
 10
1870.440764062919
 20
301.27942421903123
 30
0.0
 11
1868.5657640629199
 21
311.2794242190314
 31
0.0
 70
     0
 13
1844.615692163276
 23
321.27942421903123
 33
0.0
 14
1840.615692163278
 24
301.27942421903123
 34
0.0
 50
90.0
  0
DIMENSION
  5
79A
  8
0
  2
*D54
 10
1844.615692163278
 20
95.713731503184135
 30
0.0
 11
1842.615692163278
 21
97.588731503184135
 31
0.0
 70
     0
 13
1840.6156921632789
 23
77.279424219031171
 33
0.0
 14
1844.615692163278
 24
57.279424219031199
 34
0.0
  0
DIMENSION
  5
7B6
  8
0
  2
*D55
 10
1803.9421610158211
 20
301.27942421903123
 30
0.0
 11
1802.0671610158211
 21
189.27942421903151
 31
0.0
 70
     0
 13
1826.615692163278
 23
77.279424219031199
 33
0.0
 14
1826.615692163278
 24
301.27942421903123
 34
0.0
 50
90.0
  0
DIMENSION
  5
7CE
  8
0
  2
*D56
 10
1786.5834195881821
 20
-22.72057578096879
 30
0.0
 11
1784.708419588181
 21
-49.720575780968488
 31
0.0
 70
     0
 13
1826.615692163278
 23
-76.720575780968801
 33
0.0
 14
1826.615692163278
 24
-22.720575780968801
 34
0.0
 50
90.0
  0
DIMENSION
  5
7E6
  8
0
  2
*D57
 10
1844.615692163278
 20
-246.67630354212361
 30
0.0
 11
1619.615692163278
 21
-244.80130354212361
 31
0.0
 70
     0
 13
1394.6156921632769
 23
-136.7205757809688
 33
0.0
 14
1844.615692163278
 24
-136.7205757809688
 34
0.0
  0
DIMENSION
  5
80B
  8
0
  2
*D59
 10
1868.062300858413
 20
913.27942421903117
 30
0.0
 11
1866.187300858413
 21
388.27942421903151
 31
0.0
 70
     0
 13
1844.615692163278
 23
-136.7205757809688
 33
0.0
 14
1844.6156921632739
 24
913.27942421903117
 34
0.0
 50
90.0
  0
DIMENSION
  5
823
  8
0
  2
*D60
 10
2391.4532597059551
 20
994.7053464195759
 30
0.0
 11
2221.4532597059551
 21
996.58034641957579
 31
0.0
 70
     0
 13
2051.4532597059542
 23
913.27942421903117
 33
0.0
 14
2391.4532597059551
 24
913.27942421903117
 34
0.0
  0
POLYLINE
  5
86C
  8
0
 66
     1
 10
0.0
 20
0.0
 30
0.0
 70
     1
  0
VERTEX
  5
D3D
  8
0
 10
2376.453259705956
 20
313.27942421903123
 30
0.0
  0
VERTEX
  5
D3E
  8
0
 10
2376.453259705956
 20
65.279424219031185
 30
0.0
 42
-0.4142135623730946
  0
VERTEX
  5
D3F
  8
0
 10
2368.4532597059551
 20
57.279424219031199
 30
0.0
  0
VERTEX
  5
D40
  8
0
 10
2074.4532597059551
 20
57.279424219031199
 30
0.0
 42
-0.4142135623730951
  0
VERTEX
  5
D41
  8
0
 10
2066.4532597059551
 20
65.279424219031185
 30
0.0
  0
VERTEX
  5
D42
  8
0
 10
2066.4532597059551
 20
313.27942421903123
 30
0.0
 42
-0.4142135623730951
  0
VERTEX
  5
D43
  8
0
 10
2074.4532597059551
 20
321.27942421903123
 30
0.0
  0
VERTEX
  5
D44
  8
0
 10
2368.4532597059551
 20
321.27942421903123
 30
0.0
 42
-0.4142135623730957
  0
SEQEND
  5
D45
  8
0
  0
POLYLINE
  5
879
  8
0
 66
     1
 10
0.0
 20
0.0
 30
0.0
 70
     1
  0
VERTEX
  5
D4A
  8
0
 10
2361.4532597059551
 20
80.279424219031185
 30
0.0
  0
VERTEX
  5
D4B
  8
0
 10
2361.4532597059551
 20
298.27942421903123
 30
0.0
 42
0.4142135623730957
  0
VERTEX
  5
D4C
  8
0
 10
2358.4532597059551
 20
301.27942421903123
 30
0.0
  0
VERTEX
  5
D4D
  8
0
 10
2084.4532597059551
 20
301.279424219031
 30
0.0
 42
0.4142135623730951
  0
VERTEX
  5
D4E
  8
0
 10
2081.4532597059551
 20
298.279424219031
 30
0.0
  0
VERTEX
  5
D4F
  8
0
 10
2081.453259705956
 20
80.279424219031185
 30
0.0
 42
0.4142135623730951
  0
VERTEX
  5
D50
  8
0
 10
2084.453259705956
 20
77.279424219031199
 30
0.0
  0
VERTEX
  5
D51
  8
0
 10
2358.4532597059551
 20
77.279424219031199
 30
0.0
 42
0.4142135623730946
  0
SEQEND
  5
D52
  8
0
  0
POLYLINE
  5
887
  8
0
 66
     1
 10
0.0
 20
0.0
 30
0.0
 70
     1
  0
VERTEX
  5
D57
  8
0
 10
2258.4532597059551
 20
-26.720575780968758
 30
0.0
  0
VERTEX
  5
D58
  8
0
 10
2258.453259705956
 20
-72.720575780968815
 30
0.0
 42
-0.4142135623730951
  0
VERTEX
  5
D59
  8
0
 10
2254.453259705956
 20
-76.720575780968815
 30
0.0
  0
VERTEX
  5
D5A
  8
0
 10
2188.4532597059551
 20
-76.720575780968815
 30
0.0
 42
-0.4142135623730951
  0
VERTEX
  5
D5B
  8
0
 10
2184.4532597059551
 20
-72.720575780968815
 30
0.0
  0
VERTEX
  5
D5C
  8
0
 10
2184.4532597059551
 20
-26.720575780968812
 30
0.0
 42
-0.4142135623730951
  0
VERTEX
  5
D5D
  8
0
 10
2188.453259705956
 20
-22.720575780968801
 30
0.0
  0
VERTEX
  5
D5E
  8
0
 10
2254.4532597059551
 20
-22.72057578096879
 30
0.0
 42
-0.4142135623730925
  0
SEQEND
  5
D5F
  8
0
  0
DIMENSION
  5
88B
  8
0
  2
*D63
 10
2361.4532597059551
 20
355.38241938279413
 30
0.0
 11
2221.4532597059551
 21
357.25741938279413
 31
0.0
 70
     0
 13
2081.4532597059551
 23
298.279424219031
 33
0.0
 14
2361.4532597059551
 24
298.27942421903123
 34
0.0
  0
DIMENSION
  5
8A3
  8
0
  2
*D64
 10
2376.453259705956
 20
399.98364768134979
 30
0.0
 11
2221.4532597059551
 21
401.85864768134979
 31
0.0
 70
     0
 13
2066.4532597059551
 23
313.27942421903123
 33
0.0
 14
2376.453259705956
 24
313.27942421903123
 34
0.0
  0
DIMENSION
  5
8BB
  8
0
  2
*D65
 10
1986.032619461339
 20
301.279424219031
 30
0.0
 11
1984.157619461339
 21
189.27942421903151
 31
0.0
 70
     0
 13
2084.453259705956
 23
77.279424219031199
 33
0.0
 14
2084.4532597059551
 24
301.279424219031
 34
0.0
 50
90.0
  0
DIMENSION
  5
8D3
  8
0
  2
*D66
 10
1963.5804753799091
 20
57.27942421903122
 30
0.0
 11
1961.7054753799091
 21
189.27942421903151
 31
0.0
 70
     0
 13
2074.4532597059551
 23
321.27942421903123
 33
0.0
 14
2074.4532597059551
 24
57.279424219031199
 34
0.0
 50
90.0
  0
DIMENSION
  5
8EB
  8
0
  2
*D67
 10
2160.3428860609251
 20
-22.720575780968801
 30
0.0
 11
2158.4678860609251
 21
-49.720575780968453
 31
0.0
 70
     0
 13
2188.4532597059551
 23
-76.720575780968815
 33
0.0
 14
2188.453259705956
 24
-22.720575780968801
 34
0.0
 50
90.0
  0
DIMENSION
  5
903
  8
0
  2
*D68
 10
2258.453259705956
 20
-114.7630066376895
 30
0.0
 11
2221.4532597059551
 21
-112.8880066376895
 31
0.0
 70
     0
 13
2184.4532597059551
 23
-72.720575780968815
 33
0.0
 14
2258.453259705956
 24
-72.720575780968815
 34
0.0
  0
DIMENSION
  5
91B
  8
0
  2
*D69
 10
2489.089019275933
 20
-136.7205757809688
 30
0.0
 11
2487.214019275933
 21
388.27942421903163
 31
0.0
 70
     0
 13
2391.4532597059551
 23
913.27942421903117
 33
0.0
 14
2391.4532597059551
 24
-136.7205757809688
 34
0.0
 50
90.0
  0
ENDSEC
  0
EOF
